  0
SECTION
  2
HEADER
  9
$ACADVER
  1
AC1015
  9
$ACADMAINTVER
 70
    20
  9
$DWGCODEPAGE
  3
ANSI_936
  9
$INSBASE
 10
0.0
 20
0.0
 30
0.0
  9
$EXTMIN
 10
299.0257827918987
 20
129.7778112948244
 30
-0.0000000349181948
  9
$EXTMAX
 10
509.0537611760058
 20
426.8054065343298
 30
0.0000000814935747
  9
$LIMMIN
 10
0.0
 20
0.0
  9
$LIMMAX
 10
12.0
 20
9.0
  9
$ORTHOMODE
 70
     0
  9
$REGENMODE
 70
     1
  9
$FILLMODE
 70
     1
  9
$QTEXTMODE
 70
     0
  9
$MIRRTEXT
 70
     0
  9
$LTSCALE
 40
1.0
  9
$ATTMODE
 70
     1
  9
$TEXTSIZE
 40
0.2
  9
$TRACEWID
 40
0.05
  9
$TEXTSTYLE
  7
Standard
  9
$CLAYER
  8
0
  9
$CELTYPE
  6
ByLayer
  9
$CECOLOR
 62
   256
  9
$CELTSCALE
 40
1.0
  9
$DISPSILH
 70
     0
  9
$DIMSCALE
 40
1.0
  9
$DIMASZ
 40
0.18
  9
$DIMEXO
 40
0.0625
  9
$DIMDLI
 40
0.38
  9
$DIMRND
 40
0.0
  9
$DIMDLE
 40
0.0
  9
$DIMEXE
 40
0.18
  9
$DIMTP
 40
0.0
  9
$DIMTM
 40
0.0
  9
$DIMTXT
 40
0.18
  9
$DIMCEN
 40
0.09
  9
$DIMTSZ
 40
0.0
  9
$DIMTOL
 70
     0
  9
$DIMLIM
 70
     0
  9
$DIMTIH
 70
     1
  9
$DIMTOH
 70
     1
  9
$DIMSE1
 70
     0
  9
$DIMSE2
 70
     0
  9
$DIMTAD
 70
     0
  9
$DIMZIN
 70
     0
  9
$DIMBLK
  1

  9
$DIMASO
 70
     1
  9
$DIMSHO
 70
     1
  9
$DIMPOST
  1

  9
$DIMAPOST
  1

  9
$DIMALT
 70
     0
  9
$DIMALTD
 70
     2
  9
$DIMALTF
 40
25.4
  9
$DIMLFAC
 40
1.0
  9
$DIMTOFL
 70
     0
  9
$DIMTVP
 40
0.0
  9
$DIMTIX
 70
     0
  9
$DIMSOXD
 70
     0
  9
$DIMSAH
 70
     0
  9
$DIMBLK1
  1

  9
$DIMBLK2
  1

  9
$DIMSTYLE
  2
Standard
  9
$DIMCLRD
 70
     0
  9
$DIMCLRE
 70
     0
  9
$DIMCLRT
 70
     0
  9
$DIMTFAC
 40
1.0
  9
$DIMGAP
 40
0.09
  9
$DIMJUST
 70
     0
  9
$DIMSD1
 70
     0
  9
$DIMSD2
 70
     0
  9
$DIMTOLJ
 70
     1
  9
$DIMTZIN
 70
     0
  9
$DIMALTZ
 70
     0
  9
$DIMALTTZ
 70
     0
  9
$DIMUPT
 70
     0
  9
$DIMDEC
 70
     4
  9
$DIMTDEC
 70
     4
  9
$DIMALTU
 70
     2
  9
$DIMALTTD
 70
     2
  9
$DIMTXSTY
  7
Standard
  9
$DIMAUNIT
 70
     0
  9
$DIMADEC
 70
     0
  9
$DIMALTRND
 40
0.0
  9
$DIMAZIN
 70
     0
  9
$DIMDSEP
 70
    46
  9
$DIMATFIT
 70
     3
  9
$DIMFRAC
 70
     0
  9
$DIMLDRBLK
  1

  9
$DIMLUNIT
 70
     2
  9
$DIMLWD
 70
    -2
  9
$DIMLWE
 70
    -2
  9
$DIMTMOVE
 70
     0
  9
$LUNITS
 70
     2
  9
$LUPREC
 70
     4
  9
$SKETCHINC
 40
0.1
  9
$FILLETRAD
 40
0.0
  9
$AUNITS
 70
     0
  9
$AUPREC
 70
     0
  9
$MENU
  1
.
  9
$ELEVATION
 40
0.0
  9
$PELEVATION
 40
0.0
  9
$THICKNESS
 40
0.0
  9
$LIMCHECK
 70
     0
  9
$CHAMFERA
 40
0.0
  9
$CHAMFERB
 40
0.0
  9
$CHAMFERC
 40
0.0
  9
$CHAMFERD
 40
0.0
  9
$SKPOLY
 70
     0
  9
$TDCREATE
 40
2458487.697577801
  9
$TDUCREATE
 40
2458487.364244468
  9
$TDUPDATE
 40
2458488.396718287
  9
$TDUUPDATE
 40
2458488.063384954
  9
$TDINDWG
 40
0.0006877546
  9
$TDUSRTIMER
 40
0.0006877083
  9
$USRTIMER
 70
     1
  9
$ANGBASE
 50
0.0
  9
$ANGDIR
 70
     0
  9
$PDMODE
 70
     0
  9
$PDSIZE
 40
0.0
  9
$PLINEWID
 40
0.0
  9
$SPLFRAME
 70
     0
  9
$SPLINETYPE
 70
     6
  9
$SPLINESEGS
 70
     8
  9
$HANDSEED
  5
866
  9
$SURFTAB1
 70
     6
  9
$SURFTAB2
 70
     6
  9
$SURFTYPE
 70
     6
  9
$SURFU
 70
     6
  9
$SURFV
 70
     6
  9
$UCSBASE
  2

  9
$UCSNAME
  2

  9
$UCSORG
 10
0.0
 20
0.0
 30
0.0
  9
$UCSXDIR
 10
1.0
 20
0.0
 30
0.0
  9
$UCSYDIR
 10
0.0
 20
1.0
 30
0.0
  9
$UCSORTHOREF
  2

  9
$UCSORTHOVIEW
 70
     0
  9
$UCSORGTOP
 10
0.0
 20
0.0
 30
0.0
  9
$UCSORGBOTTOM
 10
0.0
 20
0.0
 30
0.0
  9
$UCSORGLEFT
 10
0.0
 20
0.0
 30
0.0
  9
$UCSORGRIGHT
 10
0.0
 20
0.0
 30
0.0
  9
$UCSORGFRONT
 10
0.0
 20
0.0
 30
0.0
  9
$UCSORGBACK
 10
0.0
 20
0.0
 30
0.0
  9
$PUCSBASE
  2

  9
$PUCSNAME
  2

  9
$PUCSORG
 10
0.0
 20
0.0
 30
0.0
  9
$PUCSXDIR
 10
1.0
 20
0.0
 30
0.0
  9
$PUCSYDIR
 10
0.0
 20
1.0
 30
0.0
  9
$PUCSORTHOREF
  2

  9
$PUCSORTHOVIEW
 70
     0
  9
$PUCSORGTOP
 10
0.0
 20
0.0
 30
0.0
  9
$PUCSORGBOTTOM
 10
0.0
 20
0.0
 30
0.0
  9
$PUCSORGLEFT
 10
0.0
 20
0.0
 30
0.0
  9
$PUCSORGRIGHT
 10
0.0
 20
0.0
 30
0.0
  9
$PUCSORGFRONT
 10
0.0
 20
0.0
 30
0.0
  9
$PUCSORGBACK
 10
0.0
 20
0.0
 30
0.0
  9
$USERI1
 70
     0
  9
$USERI2
 70
     0
  9
$USERI3
 70
     0
  9
$USERI4
 70
     0
  9
$USERI5
 70
     0
  9
$USERR1
 40
0.0
  9
$USERR2
 40
0.0
  9
$USERR3
 40
0.0
  9
$USERR4
 40
0.0
  9
$USERR5
 40
2.5
  9
$WORLDVIEW
 70
     1
  9
$SHADEDGE
 70
     3
  9
$SHADEDIF
 70
    70
  9
$TILEMODE
 70
     1
  9
$MAXACTVP
 70
    64
  9
$PINSBASE
 10
0.0
 20
0.0
 30
0.0
  9
$PLIMCHECK
 70
     0
  9
$PEXTMIN
 10
0.0
 20
0.0
 30
0.0
  9
$PEXTMAX
 10
0.0
 20
0.0
 30
0.0
  9
$PLIMMIN
 10
0.0
 20
0.0
  9
$PLIMMAX
 10
12.0
 20
9.0
  9
$UNITMODE
 70
     0
  9
$VISRETAIN
 70
     1
  9
$PLINEGEN
 70
     0
  9
$PSLTSCALE
 70
     1
  9
$TREEDEPTH
 70
  3020
  9
$CMLSTYLE
  2
Standard
  9
$CMLJUST
 70
     0
  9
$CMLSCALE
 40
1.0
  9
$PROXYGRAPHICS
 70
     1
  9
$MEASUREMENT
 70
     0
  9
$CELWEIGHT
370
    -1
  9
$ENDCAPS
280
     0
  9
$JOINSTYLE
280
     0
  9
$LWDISPLAY
290
     0
  9
$INSUNITS
 70
     1
  9
$HYPERLINKBASE
  1

  9
$STYLESHEET
  1

  9
$XEDIT
290
     1
  9
$CEPSNTYPE
380
     0
  9
$PSTYLEMODE
290
     1
  9
$FINGERPRINTGUID
  2
{60F20584-7BFB-4ACE-A58E-C6F415DE1816}
  9
$VERSIONGUID
  2
{EBCE929E-FB02-443C-914A-83FBA8BEDDFD}
  9
$EXTNAMES
290
     1
  9
$PSVPSCALE
 40
0.0
  9
$OLESTARTUP
290
     0
  0
ENDSEC
  0
SECTION
  2
CLASSES
  0
CLASS
  1
ACDBDICTIONARYWDFLT
  2
AcDbDictionaryWithDefault
  3
ObjectDBX Classes
 90
        0
280
     0
281
     0
  0
CLASS
  1
ACDBPLACEHOLDER
  2
AcDbPlaceHolder
  3
ObjectDBX Classes
 90
        0
280
     0
281
     0
  0
CLASS
  1
LAYOUT
  2
AcDbLayout
  3
ObjectDBX Classes
 90
        0
280
     0
281
     0
  0
CLASS
  1
DICTIONARYVAR
  2
AcDbDictionaryVar
  3
ObjectDBX Classes
 90
        0
280
     0
281
     0
  0
CLASS
  1
TABLESTYLE
  2
AcDbTableStyle
  3
ObjectDBX Classes
 90
     4095
280
     0
281
     0
  0
CLASS
  1
MATERIAL
  2
AcDbMaterial
  3
ObjectDBX Classes
 90
     1153
280
     0
281
     0
  0
CLASS
  1
VISUALSTYLE
  2
AcDbVisualStyle
  3
ObjectDBX Classes
 90
     4095
280
     0
281
     0
  0
CLASS
  1
SCALE
  2
AcDbScale
  3
ObjectDBX Classes
 90
     1153
280
     0
281
     0
  0
CLASS
  1
MLEADERSTYLE
  2
AcDbMLeaderStyle
  3
ACDB_MLEADERSTYLE_CLASS
 90
     4095
280
     0
281
     0
  0
CLASS
  1
CELLSTYLEMAP
  2
AcDbCellStyleMap
  3
ObjectDBX Classes
 90
     1152
280
     0
281
     0
  0
CLASS
  1
EXACXREFPANELOBJECT
  2
ExAcXREFPanelObject
  3
EXAC_ESW
 90
    33793
280
     0
281
     0
  0
CLASS
  1
NPOCOLLECTION
  2
AcDbImpNonPersistentObjectsCollection
  3
ObjectDBX Classes
 90
    33921
280
     0
281
     0
  0
CLASS
  1
LAYER_INDEX
  2
AcDbLayerIndex
  3
ObjectDBX Classes
 90
    32768
280
     0
281
     0
  0
CLASS
  1
SPATIAL_INDEX
  2
AcDbSpatialIndex
  3
ObjectDBX Classes
 90
    32768
280
     0
281
     0
  0
CLASS
  1
IDBUFFER
  2
AcDbIdBuffer
  3
ObjectDBX Classes
 90
    32768
280
     0
281
     0
  0
CLASS
  1
ACDBSECTIONVIEWSTYLE
  2
AcDbSectionViewStyle
  3
ObjectDBX Classes
 90
     1025
280
     0
281
     0
  0
CLASS
  1
ACDBDETAILVIEWSTYLE
  2
AcDbDetailViewStyle
  3
ObjectDBX Classes
 90
     1025
280
     0
281
     0
  0
CLASS
  1
VLO-VL
  2
vlo_VL
  3
VL|AutoLISP based application
 90
      129
280
     0
281
     0
  0
CLASS
  1
ACDB_MTEXTOBJECTCONTEXTDATA_CLASS
  2
AcDbMTextObjectContextData
  3
ObjectDBX Classes
 90
     1153
280
     0
281
     0
  0
CLASS
  1
DIMASSOC
  2
AcDbDimAssoc
  3
"AcDbDimAssoc|Product Desc:     AcDim ARX App For Dimension|Company:          Autodesk, Inc.|WEB Address:      www.autodesk.com"
 90
        0
280
     0
281
     0
  0
CLASS
  1
ACDB_ALDIMOBJECTCONTEXTDATA_CLASS
  2
AcDbAlignedDimensionObjectContextData
  3
ObjectDBX Classes
 90
     1153
280
     0
281
     0
  0
CLASS
  1
SORTENTSTABLE
  2
AcDbSortentsTable
  3
ObjectDBX Classes
 90
    32768
280
     0
281
     0
  0
ENDSEC
  0
SECTION
  2
TABLES
  0
TABLE
  2
VPORT
  5
8
330
0
100
AcDbSymbolTable
 70
     1
  0
VPORT
  5
94
330
8
100
AcDbSymbolTableRecord
100
AcDbViewportTableRecord
  2
*Active
 70
     0
 10
0.0
 20
0.0
 11
1.0
 21
1.0
 12
404.0397719839523
 22
278.2916089145772
 13
0.0
 23
0.0
 14
0.5
 24
0.5
 15
0.5
 25
0.5
 16
0.0
 26
0.0
 36
1.0
 17
0.0
 27
0.0
 37
0.0
 40
300.0028299163619
 41
2.081939799331103
 42
50.0
 43
0.0
 44
0.0
 50
0.0
 51
0.0
 71
     0
 72
  1000
 73
     1
 74
     3
 75
     0
 76
     0
 77
     0
 78
     0
281
     0
 65
     1
110
0.0
120
0.0
130
0.0
111
1.0
121
0.0
131
0.0
112
0.0
122
1.0
132
0.0
 79
     0
146
0.0
1001
ACAD_NAV_VCDISPLAY
1070
     3
  0
ENDTAB
  0
TABLE
  2
LTYPE
  5
5
330
0
100
AcDbSymbolTable
 70
     4
  0
LTYPE
  5
14
330
5
100
AcDbSymbolTableRecord
100
AcDbLinetypeTableRecord
  2
ByBlock
 70
     0
  3

 72
    65
 73
     0
 40
0.0
  0
LTYPE
  5
15
330
5
100
AcDbSymbolTableRecord
100
AcDbLinetypeTableRecord
  2
ByLayer
 70
     0
  3

 72
    65
 73
     0
 40
0.0
  0
LTYPE
  5
16
330
5
100
AcDbSymbolTableRecord
100
AcDbLinetypeTableRecord
  2
Continuous
 70
     0
  3
Solid line
 72
    65
 73
     0
 40
0.0
  0
LTYPE
  5
24C
330
5
100
AcDbSymbolTableRecord
100
AcDbLinetypeTableRecord
  2
CENTER
 70
     0
  3
Center ____ _ ____ _ ____ _ ____ _ ____ _ ____
 72
    65
 73
     4
 40
50.8
 49
31.75
 74
     0
 49
-6.349999999999998
 74
     0
 49
6.349999999999998
 74
     0
 49
-6.349999999999998
 74
     0
  0
LTYPE
  5
24D
330
5
100
AcDbSymbolTableRecord
100
AcDbLinetypeTableRecord
  2
CENTER2
 70
     0
  3
Center (.5x) ___ _ ___ _ ___ _ ___ _ ___ _ ___
 72
    65
 73
     4
 40
28.575
 49
19.05
 74
     0
 49
-3.174999999999998
 74
     0
 49
3.174999999999998
 74
     0
 49
-3.174999999999998
 74
     0
  0
ENDTAB
  0
TABLE
  2
LAYER
  5
2
102
{ACAD_XDICTIONARY
360
18E
102
}
330
0
100
AcDbSymbolTable
 70
    10
  0
LAYER
  5
10
102
{ACAD_XDICTIONARY
360
E6
102
}
330
2
100
AcDbSymbolTableRecord
100
AcDbLayerTableRecord
  2
0
 70
     0
 62
     7
  6
Continuous
370
    -3
390
F
  0
LAYER
  5
24E
330
2
100
AcDbSymbolTableRecord
100
AcDbLayerTableRecord
  2
DEFPOINTS
 70
     0
 62
     7
  6
Continuous
290
     0
370
    -3
390
F
  0
LAYER
  5
24F
102
{ACAD_XDICTIONARY
360
250
102
}
330
2
100
AcDbSymbolTableRecord
100
AcDbLayerTableRecord
  2
1L
 70
     0
 62
     7
  6
Continuous
370
    18
390
F
  0
LAYER
  5
251
102
{ACAD_XDICTIONARY
360
252
102
}
330
2
100
AcDbSymbolTableRecord
100
AcDbLayerTableRecord
  2
7L
 70
     0
 62
     3
  6
Continuous
370
    25
390
F
  0
LAYER
  5
253
102
{ACAD_XDICTIONARY
360
254
102
}
330
2
100
AcDbSymbolTableRecord
100
AcDbLayerTableRecord
  2
5L
 70
     0
 62
     1
  6
Continuous
370
    30
390
F
  0
LAYER
  5
255
102
{ACAD_XDICTIONARY
360
256
102
}
330
2
100
AcDbSymbolTableRecord
100
AcDbLayerTableRecord
  2
中心线
 70
     0
 62
    10
  6
CENTER2
370
    13
390
F
  0
LAYER
  5
257
330
2
100
AcDbSymbolTableRecord
100
AcDbLayerTableRecord
  2
1.1L
 70
     0
 62
     7
  6
Continuous
370
    30
390
F
1001
AcAecLayerStandard
1000

1000

1001
AcCmTransparency
1071
        0
  0
LAYER
  5
258
330
2
100
AcDbSymbolTableRecord
100
AcDbLayerTableRecord
  2
dim
 70
     0
 62
    82
  6
Continuous
370
     9
390
F
  0
LAYER
  5
824
102
{ACAD_XDICTIONARY
360
825
102
}
330
2
100
AcDbSymbolTableRecord
100
AcDbLayerTableRecord
  2
dim @ 1
 70
     0
 62
    82
  6
Continuous
370
     9
390
F
1001
AcadAnnotativeDecomposition
1000
AnnotativeData
1002
{
1070
     1
1070
     1
1002
}
  0
ENDTAB
  0
TABLE
  2
STYLE
  5
3
330
0
100
AcDbSymbolTable
 70
     3
  0
STYLE
  5
11
330
3
100
AcDbSymbolTableRecord
100
AcDbTextStyleTableRecord
  2
Standard
 70
     0
 40
0.0
 41
1.0
 50
0.0
 71
     0
 42
0.2
  3
arial.ttf
  4

1001
ACAD
1000
Arial
1071
       34
  0
STYLE
  5
DC
330
3
100
AcDbSymbolTableRecord
100
AcDbTextStyleTableRecord
  2
可註解
 70
     0
 40
0.0
 41
1.0
 50
0.0
 71
     0
 42
0.2
  3
arial.ttf
  4

1001
AcadAnnotative
1000
AnnotativeData
1002
{
1070
     1
1070
     1
1002
}
1001
ACAD
1000
Arial
1071
       34
  0
STYLE
  5
259
330
3
100
AcDbSymbolTableRecord
100
AcDbTextStyleTableRecord
  2
ROMANS
 70
     0
 40
0.0
 41
0.7
 50
0.0
 71
     0
 42
5.0
  3
ROMANS
  4

  0
ENDTAB
  0
TABLE
  2
VIEW
  5
6
330
0
100
AcDbSymbolTable
 70
     0
  0
ENDTAB
  0
TABLE
  2
UCS
  5
7
330
0
100
AcDbSymbolTable
 70
     0
  0
ENDTAB
  0
TABLE
  2
APPID
  5
9
330
0
100
AcDbSymbolTable
 70
    15
  0
APPID
  5
12
330
9
100
AcDbSymbolTableRecord
100
AcDbRegAppTableRecord
  2
ACAD
 70
     0
  0
APPID
  5
DD
330
9
100
AcDbSymbolTableRecord
100
AcDbRegAppTableRecord
  2
AcadAnnoPO
 70
     0
  0
APPID
  5
DE
330
9
100
AcDbSymbolTableRecord
100
AcDbRegAppTableRecord
  2
AcadAnnotative
 70
     0
  0
APPID
  5
DF
330
9
100
AcDbSymbolTableRecord
100
AcDbRegAppTableRecord
  2
ACAD_DSTYLE_DIMJAG
 70
     0
  0
APPID
  5
E0
330
9
100
AcDbSymbolTableRecord
100
AcDbRegAppTableRecord
  2
ACAD_DSTYLE_DIMTALN
 70
     0
  0
APPID
  5
107
330
9
100
AcDbSymbolTableRecord
100
AcDbRegAppTableRecord
  2
ACAD_MLEADERVER
 70
     0
  0
APPID
  5
1A6
330
9
100
AcDbSymbolTableRecord
100
AcDbRegAppTableRecord
  2
ACAD_NAV_VCDISPLAY
 70
     0
  0
APPID
  5
25F
330
9
100
AcDbSymbolTableRecord
100
AcDbRegAppTableRecord
  2
ACAD_DSTYLE_DIMBREAK
 70
     0
  0
APPID
  5
260
330
9
100
AcDbSymbolTableRecord
100
AcDbRegAppTableRecord
  2
AcAecLayerStandard
 70
     0
  0
APPID
  5
261
330
9
100
AcDbSymbolTableRecord
100
AcDbRegAppTableRecord
  2
ACAD_PSEXT
 70
     0
  0
APPID
  5
262
330
9
100
AcDbSymbolTableRecord
100
AcDbRegAppTableRecord
  2
AcCmTransparency
 70
     0
  0
APPID
  5
775
330
9
100
AcDbSymbolTableRecord
100
AcDbRegAppTableRecord
  2
AcadAnnotativeDecomposition
 70
     0
  0
APPID
  5
7C0
330
9
100
AcDbSymbolTableRecord
100
AcDbRegAppTableRecord
  2
ACAD_OBJECT_CHANGE_GUID
 70
     0
  0
APPID
  5
80A
330
9
100
AcDbSymbolTableRecord
100
AcDbRegAppTableRecord
  2
AcadAnnoMonitorAlertIconDisabled
 70
     0
  0
APPID
  5
80B
330
9
100
AcDbSymbolTableRecord
100
AcDbRegAppTableRecord
  2
ACAD_EXEMPT_FROM_CAD_STANDARDS
 70
     0
  0
ENDTAB
  0
TABLE
  2
DIMSTYLE
  5
A
330
0
100
AcDbSymbolTable
 70
     7
100
AcDbDimStyleTable
 71
     2
340
27
340
E1
  0
DIMSTYLE
105
27
330
A
100
AcDbSymbolTableRecord
100
AcDbDimStyleTableRecord
  2
Standard
 70
     0
340
11
  0
DIMSTYLE
105
E1
330
A
100
AcDbSymbolTableRecord
100
AcDbDimStyleTableRecord
  2
Annotative
 70
     0
 40
0.0
340
11
1001
AcadAnnotative
1000
AnnotativeData
1002
{
1070
     1
1070
     1
1002
}
1001
ACAD_DSTYLE_DIMJAG
1070
   388
1040
1.5
1001
ACAD_DSTYLE_DIMTALN
1070
   392
1070
     0
  0
DIMSTYLE
105
25A
330
A
100
AcDbSymbolTableRecord
100
AcDbDimStyleTableRecord
  2
ISO-25
 70
     0
 41
2.5
 42
0.35
 43
0.35
 44
0.5
 73
     0
 77
     1
 78
     8
140
2.5
141
5.0
143
0.03937007874016
147
1.0
171
     3
172
     1
176
     1
177
     1
178
     3
179
     2
271
     2
272
     2
274
     3
283
     0
284
     8
340
11
371
    15
372
    15
1001
ACAD_DSTYLE_DIMBREAK
1070
   391
1040
4.5
1001
ACAD_DSTYLE_DIMJAG
1070
   388
1040
1.5
1001
ACAD_DSTYLE_DIMTALN
1070
   392
1070
     0
  0
DIMSTYLE
105
25B
330
A
100
AcDbSymbolTableRecord
100
AcDbDimStyleTableRecord
  2
副本ISO-25-2
 70
     0
 41
2.5
 42
0.625
 43
3.75
 44
1.25
 73
     0
 74
     0
 77
     1
 78
     8
140
2.5
141
2.5
143
0.03937007874016
144
1.25
147
0.625
171
     3
172
     1
178
     2
271
     2
272
     2
274
     3
283
     0
284
     8
340
11
  0
DIMSTYLE
105
25C
330
A
100
AcDbSymbolTableRecord
100
AcDbDimStyleTableRecord
  2
副本 (2)ISO-25zhi
 70
     0
 41
1.25
 42
0.3
 43
0.5
 44
0.0
 73
     0
 74
     0
 77
     1
 78
     8
140
2.5
141
0.0
143
0.03937007874016
147
0.3
171
     3
172
     1
176
     1
177
     1
178
     3
179
     2
271
     2
272
     2
274
     3
283
     0
284
     8
340
11
1001
ACAD_DSTYLE_DIMJAG
1070
   388
1040
2.5
1001
ACAD_DSTYLE_DIMTALN
1070
   392
1070
     0
  0
DIMSTYLE
105
25D
102
{ACAD_REACTORS
330
5EA
330
5F0
330
5F6
330
5FC
330
60E
330
613
330
625
330
5D3
330
5D9
330
5E4
102
}
330
A
100
AcDbSymbolTableRecord
100
AcDbDimStyleTableRecord
  2
副本 ISO-25
 70
     0
 41
5.0
 42
0.35
 43
0.35
 44
0.3
 73
     0
 74
     0
 77
     1
 78
     8
 79
     2
140
4.0
141
5.0
143
0.03937007874016
147
1.5
171
     3
172
     1
176
     1
177
     1
178
     3
179
     2
271
     2
272
     2
274
     3
283
     0
284
     8
340
11
371
    15
372
    15
1001
ACAD_DSTYLE_DIMBREAK
1070
   391
1040
3.0
1001
AcadAnnotative
1000
AnnotativeData
1002
{
1070
     1
1070
     1
1002
}
1001
ACAD_DSTYLE_DIMJAG
1070
   388
1040
1.5
1001
ACAD_DSTYLE_DIMTALN
1070
   392
1070
     0
  0
DIMSTYLE
105
25E
330
A
100
AcDbSymbolTableRecord
100
AcDbDimStyleTableRecord
  2
rrrrrr
 70
     0
 41
1.199999999999999
 42
0.29985
 43
0.35
 44
0.29985
 73
     0
 77
     1
 78
     8
 79
     2
140
1.5
141
5.0
143
0.03937007874016
147
0.29985
171
     3
172
     1
176
     1
177
     1
178
     3
179
     2
271
     2
272
     2
274
     3
283
     0
284
     8
340
11
371
    15
372
    15
1001
ACAD_DSTYLE_DIMBREAK
1070
   391
1040
3.0
1001
AcadAnnotative
1000
AnnotativeData
1002
{
1070
     1
1070
     1
1002
}
1001
ACAD_DSTYLE_DIMJAG
1070
   388
1040
1.5
1001
ACAD_DSTYLE_DIMTALN
1070
   392
1070
     0
  0
ENDTAB
  0
TABLE
  2
BLOCK_RECORD
  5
1
330
0
100
AcDbSymbolTable
 70
    22
  0
BLOCK_RECORD
  5
1F
102
{ACAD_XDICTIONARY
360
15D
102
}
330
1
100
AcDbSymbolTableRecord
100
AcDbBlockTableRecord
  2
*Model_Space
340
22
  0
BLOCK_RECORD
  5
58
330
1
100
AcDbSymbolTableRecord
100
AcDbBlockTableRecord
  2
*Paper_Space
340
59
  0
BLOCK_RECORD
  5
5D
330
1
100
AcDbSymbolTableRecord
100
AcDbBlockTableRecord
  2
*Paper_Space0
340
5E
  0
BLOCK_RECORD
  5
1D4
330
1
100
AcDbSymbolTableRecord
100
AcDbBlockTableRecord
  2
*D1
340
0
  0
BLOCK_RECORD
  5
1E0
330
1
100
AcDbSymbolTableRecord
100
AcDbBlockTableRecord
  2
*D2
340
0
  0
BLOCK_RECORD
  5
1EC
330
1
100
AcDbSymbolTableRecord
100
AcDbBlockTableRecord
  2
*D3
340
0
  0
BLOCK_RECORD
  5
1F8
330
1
100
AcDbSymbolTableRecord
100
AcDbBlockTableRecord
  2
*D4
340
0
  0
BLOCK_RECORD
  5
204
330
1
100
AcDbSymbolTableRecord
100
AcDbBlockTableRecord
  2
*D5
340
0
  0
BLOCK_RECORD
  5
210
330
1
100
AcDbSymbolTableRecord
100
AcDbBlockTableRecord
  2
*D6
340
0
  0
BLOCK_RECORD
  5
21C
330
1
100
AcDbSymbolTableRecord
100
AcDbBlockTableRecord
  2
*D7
340
0
  0
BLOCK_RECORD
  5
228
330
1
100
AcDbSymbolTableRecord
100
AcDbBlockTableRecord
  2
*D8
340
0
  0
BLOCK_RECORD
  5
234
330
1
100
AcDbSymbolTableRecord
100
AcDbBlockTableRecord
  2
*D9
340
0
  0
BLOCK_RECORD
  5
240
330
1
100
AcDbSymbolTableRecord
100
AcDbBlockTableRecord
  2
*D10
340
0
  0
BLOCK_RECORD
  5
68A
330
1
100
AcDbSymbolTableRecord
100
AcDbBlockTableRecord
  2
*D11
340
0
  0
BLOCK_RECORD
  5
696
330
1
100
AcDbSymbolTableRecord
100
AcDbBlockTableRecord
  2
*D12
340
0
  0
BLOCK_RECORD
  5
6A2
330
1
100
AcDbSymbolTableRecord
100
AcDbBlockTableRecord
  2
*D13
340
0
  0
BLOCK_RECORD
  5
6AE
330
1
100
AcDbSymbolTableRecord
100
AcDbBlockTableRecord
  2
*D14
340
0
  0
BLOCK_RECORD
  5
6BA
330
1
100
AcDbSymbolTableRecord
100
AcDbBlockTableRecord
  2
*D15
340
0
  0
BLOCK_RECORD
  5
6C6
330
1
100
AcDbSymbolTableRecord
100
AcDbBlockTableRecord
  2
*D16
340
0
  0
BLOCK_RECORD
  5
6D2
330
1
100
AcDbSymbolTableRecord
100
AcDbBlockTableRecord
  2
*D17
340
0
  0
BLOCK_RECORD
  5
6DE
330
1
100
AcDbSymbolTableRecord
100
AcDbBlockTableRecord
  2
*D18
340
0
  0
BLOCK_RECORD
  5
6EA
330
1
100
AcDbSymbolTableRecord
100
AcDbBlockTableRecord
  2
*D19
340
0
  0
BLOCK_RECORD
  5
6F6
330
1
100
AcDbSymbolTableRecord
100
AcDbBlockTableRecord
  2
*D20
340
0
  0
BLOCK_RECORD
  5
80D
330
1
100
AcDbSymbolTableRecord
100
AcDbBlockTableRecord
  2
*D21
340
0
  0
ENDTAB
  0
ENDSEC
  0
SECTION
  2
BLOCKS
  0
BLOCK
  5
20
330
1F
100
AcDbEntity
  8
0
100
AcDbBlockBegin
  2
*Model_Space
 70
     0
 10
0.0
 20
0.0
 30
0.0
  3
*Model_Space
  1

  0
ENDBLK
  5
21
330
1F
100
AcDbEntity
  8
0
100
AcDbBlockEnd
  0
BLOCK
  5
5A
330
58
100
AcDbEntity
 67
     1
  8
0
100
AcDbBlockBegin
  2
*Paper_Space
 70
     0
 10
0.0
 20
0.0
 30
0.0
  3
*Paper_Space
  1

  0
ENDBLK
  5
5B
330
58
100
AcDbEntity
 67
     1
  8
0
100
AcDbBlockEnd
  0
BLOCK
  5
5F
330
5D
100
AcDbEntity
 67
     1
  8
0
100
AcDbBlockBegin
  2
*Paper_Space0
 70
     0
 10
0.0
 20
0.0
 30
0.0
  3
*Paper_Space0
  1

  0
ENDBLK
  5
60
330
5D
100
AcDbEntity
 67
     1
  8
0
100
AcDbBlockEnd
  0
BLOCK
  5
1D5
330
1D4
100
AcDbEntity
  8
0
100
AcDbBlockBegin
  2
*D1
 70
     1
 10
0.0
 20
0.0
 30
0.0
  3
*D1
  1

  0
LINE
  5
1D6
330
1D4
100
AcDbEntity
  8
dim
  6
ByBlock
 62
     1
370
    15
100
AcDbLine
 10
19003.34557057875
 20
743.5736561433972
 30
0.0
 11
19003.34557057875
 21
759.5244109495637
 31
0.0
  0
LINE
  5
1D7
330
1D4
100
AcDbEntity
  8
dim
  6
ByBlock
 62
     1
370
    15
100
AcDbLine
 10
19015.34557057878
 20
743.5736561433891
 30
0.0
 11
19015.34557057878
 21
759.5244109495637
 31
0.0
  0
LINE
  5
1D8
330
1D4
100
AcDbEntity
  8
dim
  6
ByBlock
 62
     1
370
    15
100
AcDbLine
 10
19005.34557057875
 20
759.0246609495639
 30
0.0
 11
19013.34557057878
 21
759.0246609495639
 31
0.0
  0
SOLID
  5
1D9
330
1D4
100
AcDbEntity
  8
dim
  6
ByBlock
 62
     1
100
AcDbTrace
 10
19005.34557057875
 20
759.3579942828971
 30
0.0
 11
19005.34557057875
 21
758.6913276162305
 31
0.0
 12
19003.34557057875
 22
759.0246609495639
 32
0.0
 13
19003.34557057875
 23
759.0246609495639
 33
0.0
  0
SOLID
  5
1DA
330
1D4
100
AcDbEntity
  8
dim
  6
ByBlock
 62
     1
100
AcDbTrace
 10
19013.34557057878
 20
759.3579942828971
 30
0.0
 11
19013.34557057878
 21
758.6913276162305
 31
0.0
 12
19015.34557057878
 22
759.0246609495639
 32
0.0
 13
19015.34557057878
 23
759.0246609495639
 33
0.0
  0
MTEXT
  5
1DB
330
1D4
100
AcDbEntity
  8
dim
  6
ByBlock
 62
     3
100
AcDbMText
 10
19009.34557057877
 20
760.7744109495637
 30
0.0
 40
2.5
 41
0.0
 71
     5
 72
     1
  1
{\fISOCPEUR|b0|i0|c0|p34;%%C}12
 73
     1
 44
1.0
1001
ACAD
1000
MTEXTBEGIN
1070
    73
1070
     1
1070
    44
1040
1.0
1070
    74
1070
     0
1000
MTEXTEND
  0
POINT
  5
1DC
330
1D4
100
AcDbEntity
  8
DEFPOINTS
  6
ByBlock
 62
     0
100
AcDbPoint
 10
19003.34557057875
 20
743.0739061433974
 30
0.0
  0
POINT
  5
1DD
330
1D4
100
AcDbEntity
  8
DEFPOINTS
  6
ByBlock
 62
     0
100
AcDbPoint
 10
19015.34557057878
 20
743.073906143389
 30
0.0
  0
POINT
  5
1DE
330
1D4
100
AcDbEntity
  8
DEFPOINTS
  6
ByBlock
 62
     0
100
AcDbPoint
 10
19015.34557057878
 20
759.0246609495639
 30
0.0
  0
ENDBLK
  5
1DF
330
1D4
100
AcDbEntity
  8
0
100
AcDbBlockEnd
  0
BLOCK
  5
1E1
330
1E0
100
AcDbEntity
  8
0
100
AcDbBlockBegin
  2
*D2
 70
     1
 10
0.0
 20
0.0
 30
0.0
  3
*D2
  1

  0
LINE
  5
1E2
330
1E0
100
AcDbEntity
  8
dim
  6
ByBlock
 62
     1
370
    15
100
AcDbLine
 10
19009.84532057877
 20
753.0739061433893
 30
0.0
 11
19051.64822125302
 21
753.0739061433893
 31
0.0
  0
LINE
  5
1E3
330
1E0
100
AcDbEntity
  8
dim
  6
ByBlock
 62
     1
370
    15
100
AcDbLine
 10
19020.03532057878
 20
672.0739061433919
 30
0.0
 11
19051.64822125302
 21
672.0739061433919
 31
0.0
  0
LINE
  5
1E4
330
1E0
100
AcDbEntity
  8
dim
  6
ByBlock
 62
     1
370
    15
100
AcDbLine
 10
19051.14847125302
 20
751.073906143389
 30
0.0
 11
19051.14847125302
 21
674.0739061433919
 31
0.0
  0
SOLID
  5
1E5
330
1E0
100
AcDbEntity
  8
dim
  6
ByBlock
 62
     1
100
AcDbTrace
 10
19050.81513791969
 20
751.073906143389
 30
0.0
 11
19051.48180458635
 21
751.073906143389
 31
0.0
 12
19051.14847125302
 22
753.0739061433893
 32
0.0
 13
19051.14847125302
 23
753.0739061433893
 33
0.0
  0
SOLID
  5
1E6
330
1E0
100
AcDbEntity
  8
dim
  6
ByBlock
 62
     1
100
AcDbTrace
 10
19050.81513791969
 20
674.0739061433919
 30
0.0
 11
19051.48180458635
 21
674.0739061433919
 31
0.0
 12
19051.14847125302
 22
672.0739061433919
 32
0.0
 13
19051.14847125302
 23
672.0739061433919
 33
0.0
  0
MTEXT
  5
1E7
330
1E0
100
AcDbEntity
  8
dim
  6
ByBlock
 62
     3
100
AcDbMText
 10
19049.39872125302
 20
712.5489215659698
 30
0.0
 40
2.5
 41
0.0
 71
     5
 72
     1
  1
81
 11
0.0000000000000001
 21
1.0
 31
0.0
 73
     1
 44
1.0
1001
ACAD
1000
MTEXTBEGIN
1070
    73
1070
     1
1070
    44
1040
1.0
1070
    74
1070
     0
1000
MTEXTEND
  0
POINT
  5
1E8
330
1E0
100
AcDbEntity
  8
DEFPOINTS
  6
ByBlock
 62
     0
100
AcDbPoint
 10
19009.34557057878
 20
753.0739061433893
 30
0.0
  0
POINT
  5
1E9
330
1E0
100
AcDbEntity
  8
DEFPOINTS
  6
ByBlock
 62
     0
100
AcDbPoint
 10
19019.53557057878
 20
672.0739061433919
 30
0.0
  0
POINT
  5
1EA
330
1E0
100
AcDbEntity
  8
DEFPOINTS
  6
ByBlock
 62
     0
100
AcDbPoint
 10
19051.14847125302
 20
672.0739061433919
 30
0.0
  0
ENDBLK
  5
1EB
330
1E0
100
AcDbEntity
  8
0
100
AcDbBlockEnd
  0
BLOCK
  5
1ED
330
1EC
100
AcDbEntity
  8
0
100
AcDbBlockBegin
  2
*D3
 70
     1
 10
0.0
 20
0.0
 30
0.0
  3
*D3
  1

  0
LINE
  5
1EE
330
1EC
100
AcDbEntity
  8
dim
  6
ByBlock
 62
     1
370
    15
100
AcDbLine
 10
19020.03532057878
 20
672.0739061433919
 30
0.0
 11
19029.81939266982
 21
672.0739061433919
 31
0.0
  0
LINE
  5
1EF
330
1EC
100
AcDbEntity
  8
dim
  6
ByBlock
 62
     1
370
    15
100
AcDbLine
 10
19023.94532057877
 20
681.4689061433941
 30
0.0
 11
19029.81939266982
 21
681.4689061433941
 31
0.0
  0
LINE
  5
1F0
330
1EC
100
AcDbEntity
  8
dim
  6
ByBlock
 62
     1
370
    15
100
AcDbLine
 10
19029.31964266982
 20
674.0739061433919
 30
0.0
 11
19029.31964266982
 21
679.4689061433943
 31
0.0
  0
SOLID
  5
1F1
330
1EC
100
AcDbEntity
  8
dim
  6
ByBlock
 62
     1
100
AcDbTrace
 10
19028.98630933649
 20
674.0739061433919
 30
0.0
 11
19029.65297600315
 21
674.0739061433919
 31
0.0
 12
19029.31964266982
 22
672.0739061433919
 32
0.0
 13
19029.31964266982
 23
672.0739061433919
 33
0.0
  0
SOLID
  5
1F2
330
1EC
100
AcDbEntity
  8
dim
  6
ByBlock
 62
     1
100
AcDbTrace
 10
19028.98630933649
 20
679.4689061433943
 30
0.0
 11
19029.65297600315
 21
679.4689061433943
 31
0.0
 12
19029.31964266982
 22
681.4689061433941
 32
0.0
 13
19029.31964266982
 23
681.4689061433941
 33
0.0
  0
MTEXT
  5
1F3
330
1EC
100
AcDbEntity
  8
dim
  6
ByBlock
 62
     3
100
AcDbMText
 10
19027.56989266982
 20
676.7714061433942
 30
0.0
 40
2.5
 41
0.0
 71
     5
 72
     1
  1
9.4
 11
0.0000000000000001
 21
1.0
 31
0.0
 73
     1
 44
1.0
1001
ACAD
1000
MTEXTBEGIN
1070
    73
1070
     1
1070
    44
1040
1.0
1070
    74
1070
     0
1000
MTEXTEND
  0
POINT
  5
1F4
330
1EC
100
AcDbEntity
  8
DEFPOINTS
  6
ByBlock
 62
     0
100
AcDbPoint
 10
19019.53557057878
 20
672.0739061433919
 30
0.0
  0
POINT
  5
1F5
330
1EC
100
AcDbEntity
  8
DEFPOINTS
  6
ByBlock
 62
     0
100
AcDbPoint
 10
19023.44557057878
 20
681.4689061433941
 30
0.0
  0
POINT
  5
1F6
330
1EC
100
AcDbEntity
  8
DEFPOINTS
  6
ByBlock
 62
     0
100
AcDbPoint
 10
19029.31964266982
 20
681.4689061433941
 30
0.0
  0
ENDBLK
  5
1F7
330
1EC
100
AcDbEntity
  8
0
100
AcDbBlockEnd
  0
BLOCK
  5
1F9
330
1F8
100
AcDbEntity
  8
0
100
AcDbBlockBegin
  2
*D4
 70
     1
 10
0.0
 20
0.0
 30
0.0
  3
*D4
  1

  0
LINE
  5
1FA
330
1F8
100
AcDbEntity
  8
dim
  6
ByBlock
 62
     1
370
    15
100
AcDbLine
 10
19020.03532057878
 20
672.0739061433919
 30
0.0
 11
19034.3663891168
 21
672.0739061433919
 31
0.0
  0
LINE
  5
1FB
330
1F8
100
AcDbEntity
  8
dim
  6
ByBlock
 62
     1
370
    15
100
AcDbLine
 10
19023.84532057878
 20
726.0689061433944
 30
0.0
 11
19034.3663891168
 21
726.0689061433944
 31
0.0
  0
LINE
  5
1FC
330
1F8
100
AcDbEntity
  8
dim
  6
ByBlock
 62
     1
370
    15
100
AcDbLine
 10
19033.8666391168
 20
674.0739061433919
 30
0.0
 11
19033.8666391168
 21
724.0689061433944
 31
0.0
  0
SOLID
  5
1FD
330
1F8
100
AcDbEntity
  8
dim
  6
ByBlock
 62
     1
100
AcDbTrace
 10
19033.53330578347
 20
674.0739061433919
 30
0.0
 11
19034.19997245013
 21
674.0739061433919
 31
0.0
 12
19033.8666391168
 22
672.0739061433919
 32
0.0
 13
19033.8666391168
 23
672.0739061433919
 33
0.0
  0
SOLID
  5
1FE
330
1F8
100
AcDbEntity
  8
dim
  6
ByBlock
 62
     1
100
AcDbTrace
 10
19033.53330578347
 20
724.0689061433944
 30
0.0
 11
19034.19997245013
 21
724.0689061433944
 31
0.0
 12
19033.8666391168
 22
726.0689061433944
 32
0.0
 13
19033.8666391168
 23
726.0689061433944
 33
0.0
  0
MTEXT
  5
1FF
330
1F8
100
AcDbEntity
  8
dim
  6
ByBlock
 62
     3
100
AcDbMText
 10
19032.1168891168
 20
699.0464061433936
 30
0.0
 40
2.5
 41
0.0
 71
     5
 72
     1
  1
54
 11
0.0000000000000001
 21
1.0
 31
0.0
 73
     1
 44
1.0
1001
ACAD
1000
MTEXTBEGIN
1070
    73
1070
     1
1070
    44
1040
1.0
1070
    74
1070
     0
1000
MTEXTEND
  0
POINT
  5
200
330
1F8
100
AcDbEntity
  8
DEFPOINTS
  6
ByBlock
 62
     0
100
AcDbPoint
 10
19019.53557057878
 20
672.0739061433919
 30
0.0
  0
POINT
  5
201
330
1F8
100
AcDbEntity
  8
DEFPOINTS
  6
ByBlock
 62
     0
100
AcDbPoint
 10
19023.34557057878
 20
726.0689061433944
 30
0.0
  0
POINT
  5
202
330
1F8
100
AcDbEntity
  8
DEFPOINTS
  6
ByBlock
 62
     0
100
AcDbPoint
 10
19033.8666391168
 20
726.0689061433944
 30
0.0
  0
ENDBLK
  5
203
330
1F8
100
AcDbEntity
  8
0
100
AcDbBlockEnd
  0
BLOCK
  5
205
330
204
100
AcDbEntity
  8
0
100
AcDbBlockBegin
  2
*D5
 70
     1
 10
0.0
 20
0.0
 30
0.0
  3
*D5
  1

  0
LINE
  5
206
330
204
100
AcDbEntity
  8
dim
  6
ByBlock
 62
     1
370
    15
100
AcDbLine
 10
19018.84532057878
 20
734.0689061433944
 30
0.0
 11
19039.5351052924
 21
734.0689061433944
 31
0.0
  0
LINE
  5
207
330
204
100
AcDbEntity
  8
dim
  6
ByBlock
 62
     1
370
    15
100
AcDbLine
 10
19020.03532057878
 20
672.0739061433919
 30
0.0
 11
19039.5351052924
 21
672.0739061433919
 31
0.0
  0
LINE
  5
208
330
204
100
AcDbEntity
  8
dim
  6
ByBlock
 62
     1
370
    15
100
AcDbLine
 10
19039.0353552924
 20
732.0689061433944
 30
0.0
 11
19039.0353552924
 21
674.0739061433919
 31
0.0
  0
SOLID
  5
209
330
204
100
AcDbEntity
  8
dim
  6
ByBlock
 62
     1
100
AcDbTrace
 10
19038.70202195907
 20
732.0689061433944
 30
0.0
 11
19039.36868862574
 21
732.0689061433944
 31
0.0
 12
19039.0353552924
 22
734.0689061433944
 32
0.0
 13
19039.0353552924
 23
734.0689061433944
 33
0.0
  0
SOLID
  5
20A
330
204
100
AcDbEntity
  8
dim
  6
ByBlock
 62
     1
100
AcDbTrace
 10
19038.70202195907
 20
674.0739061433919
 30
0.0
 11
19039.36868862574
 21
674.0739061433919
 31
0.0
 12
19039.0353552924
 22
672.0739061433919
 32
0.0
 13
19039.0353552924
 23
672.0739061433919
 33
0.0
  0
MTEXT
  5
20B
330
204
100
AcDbEntity
  8
dim
  6
ByBlock
 62
     3
100
AcDbMText
 10
19037.28560529241
 20
703.0464061433936
 30
0.0
 40
2.5
 41
0.0
 71
     5
 72
     1
  1
62
 11
0.0000000000000001
 21
1.0
 31
0.0
 73
     1
 44
1.0
1001
ACAD
1000
MTEXTBEGIN
1070
    73
1070
     1
1070
    44
1040
1.0
1070
    74
1070
     0
1000
MTEXTEND
  0
POINT
  5
20C
330
204
100
AcDbEntity
  8
DEFPOINTS
  6
ByBlock
 62
     0
100
AcDbPoint
 10
19018.34557057878
 20
734.0689061433944
 30
0.0
  0
POINT
  5
20D
330
204
100
AcDbEntity
  8
DEFPOINTS
  6
ByBlock
 62
     0
100
AcDbPoint
 10
19019.53557057878
 20
672.0739061433919
 30
0.0
  0
POINT
  5
20E
330
204
100
AcDbEntity
  8
DEFPOINTS
  6
ByBlock
 62
     0
100
AcDbPoint
 10
19039.0353552924
 20
672.0739061433919
 30
0.0
  0
ENDBLK
  5
20F
330
204
100
AcDbEntity
  8
0
100
AcDbBlockEnd
  0
BLOCK
  5
211
330
210
100
AcDbEntity
  8
0
100
AcDbBlockBegin
  2
*D6
 70
     1
 10
0.0
 20
0.0
 30
0.0
  3
*D6
  1

  0
LINE
  5
212
330
210
100
AcDbEntity
  8
dim
  6
ByBlock
 62
     1
370
    15
100
AcDbLine
 10
19015.09532057878
 20
749.0739061433893
 30
0.0
 11
19045.84189609321
 21
749.0739061433893
 31
0.0
  0
LINE
  5
213
330
210
100
AcDbEntity
  8
dim
  6
ByBlock
 62
     1
370
    15
100
AcDbLine
 10
19020.03532057878
 20
672.0739061433919
 30
0.0
 11
19045.84189609321
 21
672.0739061433919
 31
0.0
  0
LINE
  5
214
330
210
100
AcDbEntity
  8
dim
  6
ByBlock
 62
     1
370
    15
100
AcDbLine
 10
19045.34214609321
 20
747.073906143389
 30
0.0
 11
19045.34214609321
 21
674.0739061433919
 31
0.0
  0
SOLID
  5
215
330
210
100
AcDbEntity
  8
dim
  6
ByBlock
 62
     1
100
AcDbTrace
 10
19045.00881275988
 20
747.073906143389
 30
0.0
 11
19045.67547942654
 21
747.073906143389
 31
0.0
 12
19045.34214609321
 22
749.0739061433893
 32
0.0
 13
19045.34214609321
 23
749.0739061433893
 33
0.0
  0
SOLID
  5
216
330
210
100
AcDbEntity
  8
dim
  6
ByBlock
 62
     1
100
AcDbTrace
 10
19045.00881275988
 20
674.0739061433919
 30
0.0
 11
19045.67547942654
 21
674.0739061433919
 31
0.0
 12
19045.34214609321
 22
672.0739061433919
 32
0.0
 13
19045.34214609321
 23
672.0739061433919
 33
0.0
  0
MTEXT
  5
217
330
210
100
AcDbEntity
  8
dim
  6
ByBlock
 62
     3
100
AcDbMText
 10
19043.59239609321
 20
710.548922366623
 30
0.0
 40
2.5
 41
0.0
 71
     5
 72
     1
  1
77
 11
0.0000000000000001
 21
1.0
 31
0.0
 73
     1
 44
1.0
1001
ACAD
1000
MTEXTBEGIN
1070
    73
1070
     1
1070
    44
1040
1.0
1070
    74
1070
     0
1000
MTEXTEND
  0
POINT
  5
218
330
210
100
AcDbEntity
  8
DEFPOINTS
  6
ByBlock
 62
     0
100
AcDbPoint
 10
19014.59557057878
 20
749.0739061433893
 30
0.0
  0
POINT
  5
219
330
210
100
AcDbEntity
  8
DEFPOINTS
  6
ByBlock
 62
     0
100
AcDbPoint
 10
19019.53557057878
 20
672.0739061433919
 30
0.0
  0
POINT
  5
21A
330
210
100
AcDbEntity
  8
DEFPOINTS
  6
ByBlock
 62
     0
100
AcDbPoint
 10
19045.34214609321
 20
672.0739061433919
 30
0.0
  0
ENDBLK
  5
21B
330
210
100
AcDbEntity
  8
0
100
AcDbBlockEnd
  0
BLOCK
  5
21D
330
21C
100
AcDbEntity
  8
0
100
AcDbBlockBegin
  2
*D7
 70
     1
 10
0.0
 20
0.0
 30
0.0
  3
*D7
  1

  0
LINE
  5
21E
330
21C
100
AcDbEntity
  8
dim
  6
ByBlock
 62
     1
370
    15
100
AcDbLine
 10
18995.24557057878
 20
672.9241561433932
 30
0.0
 11
18995.24557057878
 21
662.8772876819652
 31
0.0
  0
LINE
  5
21F
330
21C
100
AcDbEntity
  8
dim
  6
ByBlock
 62
     1
370
    15
100
AcDbLine
 10
19023.44557057878
 20
672.9241561433922
 30
0.0
 11
19023.44557057878
 21
662.8772876819652
 31
0.0
  0
LINE
  5
220
330
21C
100
AcDbEntity
  8
dim
  6
ByBlock
 62
     1
370
    15
100
AcDbLine
 10
18997.24557057878
 20
663.3770376819652
 30
0.0
 11
19021.44557057878
 21
663.3770376819652
 31
0.0
  0
SOLID
  5
221
330
21C
100
AcDbEntity
  8
dim
  6
ByBlock
 62
     1
100
AcDbTrace
 10
18997.24557057878
 20
663.7103710152985
 30
0.0
 11
18997.24557057878
 21
663.0437043486319
 31
0.0
 12
18995.24557057878
 22
663.3770376819652
 32
0.0
 13
18995.24557057878
 23
663.3770376819652
 33
0.0
  0
SOLID
  5
222
330
21C
100
AcDbEntity
  8
dim
  6
ByBlock
 62
     1
100
AcDbTrace
 10
19021.44557057878
 20
663.7103710152985
 30
0.0
 11
19021.44557057878
 21
663.0437043486319
 31
0.0
 12
19023.44557057878
 22
663.3770376819652
 32
0.0
 13
19023.44557057878
 23
663.3770376819652
 33
0.0
  0
MTEXT
  5
223
330
21C
100
AcDbEntity
  8
dim
  6
ByBlock
 62
     3
100
AcDbMText
 10
19009.34557057878
 20
665.8747043486319
 30
0.0
 40
2.5
 41
0.0
 71
     5
 72
     1
  1
{\fISOCPEUR|b0|i0|c0|p34;%%C}28.2{\H0.7x;\S 0^ -0.1;}
 73
     1
 44
1.0
1001
ACAD
1000
MTEXTBEGIN
1070
    73
1070
     1
1070
    44
1040
1.0
1070
    74
1070
     0
1000
MTEXTEND
  0
POINT
  5
224
330
21C
100
AcDbEntity
  8
DEFPOINTS
  6
ByBlock
 62
     0
100
AcDbPoint
 10
18995.24557057878
 20
673.4239061433932
 30
0.0
  0
POINT
  5
225
330
21C
100
AcDbEntity
  8
DEFPOINTS
  6
ByBlock
 62
     0
100
AcDbPoint
 10
19023.44557057878
 20
673.4239061433923
 30
0.0
  0
POINT
  5
226
330
21C
100
AcDbEntity
  8
DEFPOINTS
  6
ByBlock
 62
     0
100
AcDbPoint
 10
19023.44557057878
 20
663.3770376819652
 30
0.0
  0
ENDBLK
  5
227
330
21C
100
AcDbEntity
  8
0
100
AcDbBlockEnd
  0
BLOCK
  5
229
330
228
100
AcDbEntity
  8
0
100
AcDbBlockBegin
  2
*D8
 70
     1
 10
0.0
 20
0.0
 30
0.0
  3
*D8
  1

  0
LINE
  5
22A
330
228
100
AcDbEntity
  8
dim
  6
ByBlock
 62
     1
370
    15
100
AcDbLine
 10
19016.0299790172
 20
625.0229524973359
 30
0.0
 11
19043.9130425039
 21
625.0229524973359
 31
0.0
  0
LINE
  5
22B
330
228
100
AcDbEntity
  8
dim
  6
ByBlock
 62
     1
370
    15
100
AcDbLine
 10
19016.02997901721
 20
601.0229524973368
 30
0.0
 11
19043.9130425039
 21
601.0229524973368
 31
0.0
  0
LINE
  5
22C
330
228
100
AcDbEntity
  8
dim
  6
ByBlock
 62
     1
370
    15
100
AcDbLine
 10
19043.41329250391
 20
623.0229524973359
 30
0.0
 11
19043.41329250391
 21
603.0229524973369
 31
0.0
  0
SOLID
  5
22D
330
228
100
AcDbEntity
  8
dim
  6
ByBlock
 62
     1
100
AcDbTrace
 10
19043.07995917057
 20
623.0229524973359
 30
0.0
 11
19043.74662583724
 21
623.0229524973359
 31
0.0
 12
19043.41329250391
 22
625.0229524973359
 32
0.0
 13
19043.41329250391
 23
625.0229524973359
 33
0.0
  0
SOLID
  5
22E
330
228
100
AcDbEntity
  8
dim
  6
ByBlock
 62
     1
100
AcDbTrace
 10
19043.07995917057
 20
603.0229524973369
 30
0.0
 11
19043.74662583724
 21
603.0229524973369
 31
0.0
 12
19043.41329250391
 22
601.0229524973368
 32
0.0
 13
19043.41329250391
 23
601.0229524973368
 33
0.0
  0
MTEXT
  5
22F
330
228
100
AcDbEntity
  8
dim
  6
ByBlock
 62
     3
100
AcDbMText
 10
19041.35104250391
 20
613.0229524973368
 30
0.0
 40
2.5
 41
0.0
 71
     5
 72
     1
  1
{\H1.25x;24}
 11
0.0000000000000001
 21
1.0
 31
0.0
 73
     1
 44
1.0
1001
ACAD
1000
MTEXTBEGIN
1070
    73
1070
     1
1070
    44
1040
1.0
1070
    74
1070
     0
1000
MTEXTEND
  0
POINT
  5
230
330
228
100
AcDbEntity
  8
DEFPOINTS
  6
ByBlock
 62
     0
100
AcDbPoint
 10
19015.5302290172
 20
625.0229524973359
 30
0.0
  0
POINT
  5
231
330
228
100
AcDbEntity
  8
DEFPOINTS
  6
ByBlock
 62
     0
100
AcDbPoint
 10
19015.53022901721
 20
601.0229524973368
 30
0.0
  0
POINT
  5
232
330
228
100
AcDbEntity
  8
DEFPOINTS
  6
ByBlock
 62
     0
100
AcDbPoint
 10
19043.41329250391
 20
601.0229524973368
 30
0.0
  0
ENDBLK
  5
233
330
228
100
AcDbEntity
  8
0
100
AcDbBlockEnd
  0
BLOCK
  5
235
330
234
100
AcDbEntity
  8
0
100
AcDbBlockBegin
  2
*D9
 70
     1
 10
0.0
 20
0.0
 30
0.0
  3
*D9
  1

  0
LINE
  5
236
330
234
100
AcDbEntity
  8
dim
  6
ByBlock
 62
     1
370
    15
100
AcDbLine
 10
19012.68477475167
 20
618.0229524973377
 30
0.0
 11
19036.63071768977
 21
618.0229524973377
 31
0.0
  0
LINE
  5
237
330
234
100
AcDbEntity
  8
dim
  6
ByBlock
 62
     1
370
    15
100
AcDbLine
 10
19012.68477475167
 20
608.0229524973353
 30
0.0
 11
19036.63071768977
 21
608.0229524973353
 31
0.0
  0
LINE
  5
238
330
234
100
AcDbEntity
  8
dim
  6
ByBlock
 62
     1
370
    15
100
AcDbLine
 10
19036.13096768977
 20
616.0229524973377
 30
0.0
 11
19036.13096768977
 21
610.0229524973355
 31
0.0
  0
SOLID
  5
239
330
234
100
AcDbEntity
  8
dim
  6
ByBlock
 62
     1
100
AcDbTrace
 10
19035.79763435643
 20
616.0229524973377
 30
0.0
 11
19036.4643010231
 21
616.0229524973377
 31
0.0
 12
19036.13096768977
 22
618.0229524973377
 32
0.0
 13
19036.13096768977
 23
618.0229524973377
 33
0.0
  0
SOLID
  5
23A
330
234
100
AcDbEntity
  8
dim
  6
ByBlock
 62
     1
100
AcDbTrace
 10
19035.79763435643
 20
610.0229524973355
 30
0.0
 11
19036.4643010231
 21
610.0229524973355
 31
0.0
 12
19036.13096768977
 22
608.0229524973353
 32
0.0
 13
19036.13096768977
 23
608.0229524973353
 33
0.0
  0
MTEXT
  5
23B
330
234
100
AcDbEntity
  8
dim
  6
ByBlock
 62
     3
100
AcDbMText
 10
19034.06871768977
 20
613.0229524973398
 30
0.0
 40
2.5
 41
0.0
 71
     5
 72
     1
  1
{\H1.25x;10}
 11
0.0000000000000001
 21
1.0
 31
0.0
 73
     1
 44
1.0
1001
ACAD
1000
MTEXTBEGIN
1070
    73
1070
     1
1070
    44
1040
1.0
1070
    74
1070
     0
1000
MTEXTEND
  0
POINT
  5
23C
330
234
100
AcDbEntity
  8
DEFPOINTS
  6
ByBlock
 62
     0
100
AcDbPoint
 10
19012.18502475167
 20
618.0229524973377
 30
0.0
  0
POINT
  5
23D
330
234
100
AcDbEntity
  8
DEFPOINTS
  6
ByBlock
 62
     0
100
AcDbPoint
 10
19012.18502475167
 20
608.0229524973353
 30
0.0
  0
POINT
  5
23E
330
234
100
AcDbEntity
  8
DEFPOINTS
  6
ByBlock
 62
     0
100
AcDbPoint
 10
19036.13096768977
 20
608.0229524973353
 30
0.0
  0
ENDBLK
  5
23F
330
234
100
AcDbEntity
  8
0
100
AcDbBlockEnd
  0
BLOCK
  5
241
330
240
100
AcDbEntity
  8
0
100
AcDbBlockBegin
  2
*D10
 70
     1
 10
0.0
 20
0.0
 30
0.0
  3
*D10
  1

  0
LINE
  5
242
330
240
100
AcDbEntity
  8
dim
  6
ByBlock
 62
     1
370
    15
100
AcDbLine
 10
18994.3455705788
 20
681.8691561433756
 30
0.0
 11
18994.3455705788
 21
656.6945270853296
 31
0.0
  0
LINE
  5
243
330
240
100
AcDbEntity
  8
dim
  6
ByBlock
 62
     1
370
    15
100
AcDbLine
 10
19024.34557057878
 20
681.8691561433947
 30
0.0
 11
19024.34557057878
 21
656.6945270853296
 31
0.0
  0
LINE
  5
244
330
240
100
AcDbEntity
  8
dim
  6
ByBlock
 62
     1
370
    15
100
AcDbLine
 10
18996.3455705788
 20
657.1942770853297
 30
0.0
 11
19022.34557057878
 21
657.1942770853297
 31
0.0
  0
SOLID
  5
245
330
240
100
AcDbEntity
  8
dim
  6
ByBlock
 62
     1
100
AcDbTrace
 10
18996.3455705788
 20
657.5276104186631
 30
0.0
 11
18996.3455705788
 21
656.8609437519962
 31
0.0
 12
18994.3455705788
 22
657.1942770853297
 32
0.0
 13
18994.3455705788
 23
657.1942770853297
 33
0.0
  0
SOLID
  5
246
330
240
100
AcDbEntity
  8
dim
  6
ByBlock
 62
     1
100
AcDbTrace
 10
19022.34557057878
 20
657.5276104186631
 30
0.0
 11
19022.34557057878
 21
656.8609437519962
 31
0.0
 12
19024.34557057878
 22
657.1942770853297
 32
0.0
 13
19024.34557057878
 23
657.1942770853297
 33
0.0
  0
MTEXT
  5
247
330
240
100
AcDbEntity
  8
dim
  6
ByBlock
 62
     3
100
AcDbMText
 10
19009.34557057879
 20
658.9440270853295
 30
0.0
 40
2.5
 41
0.0
 71
     5
 72
     1
  1
M30*1.5
 73
     1
 44
1.0
1001
ACAD
1000
MTEXTBEGIN
1070
    73
1070
     1
1070
    44
1040
1.0
1070
    74
1070
     0
1000
MTEXTEND
  0
POINT
  5
248
330
240
100
AcDbEntity
  8
DEFPOINTS
  6
ByBlock
 62
     0
100
AcDbPoint
 10
18994.3455705788
 20
682.3689061433756
 30
0.0
  0
POINT
  5
249
330
240
100
AcDbEntity
  8
DEFPOINTS
  6
ByBlock
 62
     0
100
AcDbPoint
 10
19024.34557057878
 20
682.3689061433947
 30
0.0
  0
POINT
  5
24A
330
240
100
AcDbEntity
  8
DEFPOINTS
  6
ByBlock
 62
     0
100
AcDbPoint
 10
19024.34557057878
 20
657.1942770853297
 30
0.0
  0
ENDBLK
  5
24B
330
240
100
AcDbEntity
  8
0
100
AcDbBlockEnd
  0
BLOCK
  5
68B
330
68A
100
AcDbEntity
  8
0
100
AcDbBlockBegin
  2
*D11
 70
     1
 10
0.0
 20
0.0
 30
0.0
  3
*D11
  1

  0
LINE
  5
726
330
68A
100
AcDbEntity
  8
dim
  6
ByBlock
 62
     1
370
    15
100
AcDbLine
 10
414.7196235556815
 20
249.9814588799258
 30
0.0
 11
429.0506920937054
 21
249.9814588799258
 31
0.0
  0
LINE
  5
727
330
68A
100
AcDbEntity
  8
dim
  6
ByBlock
 62
     1
370
    15
100
AcDbLine
 10
418.5296235556791
 20
303.9764588799285
 30
0.0
 11
429.0506920937054
 21
303.9764588799285
 31
0.0
  0
LINE
  5
728
330
68A
100
AcDbEntity
  8
dim
  6
ByBlock
 62
     1
370
    15
100
AcDbLine
 10
428.5509420937053
 20
251.9814588799258
 30
0.0
 11
428.5509420937053
 21
301.9764588799285
 31
0.0
  0
SOLID
  5
729
330
68A
100
AcDbEntity
  8
dim
  6
ByBlock
 62
     1
100
AcDbTrace
 10
428.217608760372
 20
251.9814588799258
 30
0.0
 11
428.8842754270386
 21
251.9814588799258
 31
0.0
 12
428.5509420937053
 22
249.9814588799258
 32
0.0
 13
428.5509420937053
 23
249.9814588799258
 33
0.0
  0
SOLID
  5
72A
330
68A
100
AcDbEntity
  8
dim
  6
ByBlock
 62
     1
100
AcDbTrace
 10
428.217608760372
 20
301.9764588799285
 30
0.0
 11
428.8842754270386
 21
301.9764588799285
 31
0.0
 12
428.5509420937053
 22
303.9764588799285
 32
0.0
 13
428.5509420937053
 23
303.9764588799285
 33
0.0
  0
MTEXT
  5
72B
330
68A
100
AcDbEntity
  8
dim
  6
ByBlock
 62
     3
100
AcDbMText
 10
426.7798755862018
 20
276.9539588799275
 30
0.0
 40
2.5
 41
0.0
 71
     5
 72
     1
  1
54
 11
0.0000000000000001
 21
1.0
 31
0.0
 73
     1
 44
1.0
1001
ACAD
1000
MTEXTBEGIN
1070
    73
1070
     1
1070
    44
1040
1.0
1070
    74
1070
     0
1000
MTEXTEND
  0
POINT
  5
72C
330
68A
100
AcDbEntity
  8
DEFPOINTS
  6
ByBlock
 62
     0
100
AcDbPoint
 10
414.2198735556815
 20
249.9814588799258
 30
0.0
  0
POINT
  5
72D
330
68A
100
AcDbEntity
  8
DEFPOINTS
  6
ByBlock
 62
     0
100
AcDbPoint
 10
418.0298735556791
 20
303.9764588799285
 30
0.0
  0
POINT
  5
72E
330
68A
100
AcDbEntity
  8
DEFPOINTS
  6
ByBlock
 62
     0
100
AcDbPoint
 10
428.5509420937053
 20
303.9764588799285
 30
0.0
  0
ENDBLK
  5
68C
330
68A
100
AcDbEntity
  8
0
100
AcDbBlockEnd
  0
BLOCK
  5
697
330
696
100
AcDbEntity
  8
0
100
AcDbBlockBegin
  2
*D12
 70
     1
 10
0.0
 20
0.0
 30
0.0
  3
*D12
  1

  0
LINE
  5
72F
330
696
100
AcDbEntity
  8
dim
  6
ByBlock
 62
     1
370
    15
100
AcDbLine
 10
413.5296235556792
 20
311.9764588799285
 30
0.0
 11
434.2194082693071
 21
311.9764588799285
 31
0.0
  0
LINE
  5
730
330
696
100
AcDbEntity
  8
dim
  6
ByBlock
 62
     1
370
    15
100
AcDbLine
 10
414.7196235556815
 20
249.9814588799258
 30
0.0
 11
434.2194082693071
 21
249.9814588799258
 31
0.0
  0
LINE
  5
731
330
696
100
AcDbEntity
  8
dim
  6
ByBlock
 62
     1
370
    15
100
AcDbLine
 10
433.7196582693071
 20
309.9764588799285
 30
0.0
 11
433.7196582693071
 21
251.9814588799258
 31
0.0
  0
SOLID
  5
732
330
696
100
AcDbEntity
  8
dim
  6
ByBlock
 62
     1
100
AcDbTrace
 10
433.3863249359738
 20
309.9764588799285
 30
0.0
 11
434.0529916026404
 21
309.9764588799285
 31
0.0
 12
433.7196582693071
 22
311.9764588799285
 32
0.0
 13
433.7196582693071
 23
311.9764588799285
 33
0.0
  0
SOLID
  5
733
330
696
100
AcDbEntity
  8
dim
  6
ByBlock
 62
     1
100
AcDbTrace
 10
433.3863249359738
 20
251.9814588799258
 30
0.0
 11
434.0529916026404
 21
251.9814588799258
 31
0.0
 12
433.7196582693071
 22
249.9814588799258
 32
0.0
 13
433.7196582693071
 23
249.9814588799258
 33
0.0
  0
MTEXT
  5
734
330
696
100
AcDbEntity
  8
dim
  6
ByBlock
 62
     3
100
AcDbMText
 10
431.9434758000028
 20
280.9539588799276
 30
0.0
 40
2.5
 41
0.0
 71
     5
 72
     1
  1
62
 11
0.0000000000000001
 21
1.0
 31
0.0
 73
     1
 44
1.0
1001
ACAD
1000
MTEXTBEGIN
1070
    73
1070
     1
1070
    44
1040
1.0
1070
    74
1070
     0
1000
MTEXTEND
  0
POINT
  5
735
330
696
100
AcDbEntity
  8
DEFPOINTS
  6
ByBlock
 62
     0
100
AcDbPoint
 10
413.0298735556791
 20
311.9764588799285
 30
0.0
  0
POINT
  5
736
330
696
100
AcDbEntity
  8
DEFPOINTS
  6
ByBlock
 62
     0
100
AcDbPoint
 10
414.2198735556815
 20
249.9814588799258
 30
0.0
  0
POINT
  5
737
330
696
100
AcDbEntity
  8
DEFPOINTS
  6
ByBlock
 62
     0
100
AcDbPoint
 10
433.7196582693071
 20
249.9814588799258
 30
0.0
  0
ENDBLK
  5
698
330
696
100
AcDbEntity
  8
0
100
AcDbBlockEnd
  0
BLOCK
  5
6A3
330
6A2
100
AcDbEntity
  8
0
100
AcDbBlockBegin
  2
*D13
 70
     1
 10
0.0
 20
0.0
 30
0.0
  3
*D13
  1

  0
LINE
  5
738
330
6A2
100
AcDbEntity
  8
dim
  6
ByBlock
 62
     1
370
    15
100
AcDbLine
 10
409.779623555679
 20
326.9814588799231
 30
0.0
 11
440.5261990701123
 21
326.9814588799231
 31
0.0
  0
LINE
  5
739
330
6A2
100
AcDbEntity
  8
dim
  6
ByBlock
 62
     1
370
    15
100
AcDbLine
 10
414.7196235556815
 20
249.9814588799258
 30
0.0
 11
440.5261990701123
 21
249.9814588799258
 31
0.0
  0
LINE
  5
73A
330
6A2
100
AcDbEntity
  8
dim
  6
ByBlock
 62
     1
370
    15
100
AcDbLine
 10
440.0264490701123
 20
324.9814588799231
 30
0.0
 11
440.0264490701123
 21
251.9814588799258
 31
0.0
  0
SOLID
  5
73B
330
6A2
100
AcDbEntity
  8
dim
  6
ByBlock
 62
     1
100
AcDbTrace
 10
439.6931157367788
 20
324.9814588799231
 30
0.0
 11
440.3597824034456
 21
324.9814588799231
 31
0.0
 12
440.0264490701123
 22
326.9814588799231
 32
0.0
 13
440.0264490701123
 23
326.9814588799231
 33
0.0
  0
SOLID
  5
73C
330
6A2
100
AcDbEntity
  8
dim
  6
ByBlock
 62
     1
100
AcDbTrace
 10
439.6931157367788
 20
251.9814588799258
 30
0.0
 11
440.3597824034456
 21
251.9814588799258
 31
0.0
 12
440.0264490701123
 22
249.9814588799258
 32
0.0
 13
440.0264490701123
 23
249.9814588799258
 33
0.0
  0
MTEXT
  5
73D
330
6A2
100
AcDbEntity
  8
dim
  6
ByBlock
 62
     3
100
AcDbMText
 10
438.2766990701121
 20
288.4564751031571
 30
0.0
 40
2.5
 41
0.0
 71
     5
 72
     1
  1
77
 11
0.0000000000000001
 21
1.0
 31
0.0
 73
     1
 44
1.0
1001
ACAD
1000
MTEXTBEGIN
1070
    73
1070
     1
1070
    44
1040
1.0
1070
    74
1070
     0
1000
MTEXTEND
  0
POINT
  5
73E
330
6A2
100
AcDbEntity
  8
DEFPOINTS
  6
ByBlock
 62
     0
100
AcDbPoint
 10
409.279873555679
 20
326.9814588799231
 30
0.0
  0
POINT
  5
73F
330
6A2
100
AcDbEntity
  8
DEFPOINTS
  6
ByBlock
 62
     0
100
AcDbPoint
 10
414.2198735556815
 20
249.9814588799258
 30
0.0
  0
POINT
  5
740
330
6A2
100
AcDbEntity
  8
DEFPOINTS
  6
ByBlock
 62
     0
100
AcDbPoint
 10
440.0264490701123
 20
249.9814588799258
 30
0.0
  0
ENDBLK
  5
6A4
330
6A2
100
AcDbEntity
  8
0
100
AcDbBlockEnd
  0
BLOCK
  5
6AF
330
6AE
100
AcDbEntity
  8
0
100
AcDbBlockBegin
  2
*D14
 70
     1
 10
0.0
 20
0.0
 30
0.0
  3
*D14
  1

  0
LINE
  5
741
330
6AE
100
AcDbEntity
  8
dim
  6
ByBlock
 62
     1
370
    15
100
AcDbLine
 10
389.9298735556806
 20
250.8317088799271
 30
0.0
 11
389.9298735556806
 21
240.7848404184992
 31
0.0
  0
LINE
  5
742
330
6AE
100
AcDbEntity
  8
dim
  6
ByBlock
 62
     1
370
    15
100
AcDbLine
 10
418.1298735556777
 20
250.8317088799262
 30
0.0
 11
418.1298735556777
 21
240.7848404184992
 31
0.0
  0
LINE
  5
743
330
6AE
100
AcDbEntity
  8
dim
  6
ByBlock
 62
     1
370
    15
100
AcDbLine
 10
391.9298735556806
 20
241.2845904184992
 30
0.0
 11
416.1298735556776
 21
241.2845904184992
 31
0.0
  0
SOLID
  5
744
330
6AE
100
AcDbEntity
  8
dim
  6
ByBlock
 62
     1
100
AcDbTrace
 10
391.9298735556806
 20
241.6179237518325
 30
0.0
 11
391.9298735556806
 21
240.9512570851658
 31
0.0
 12
389.9298735556806
 22
241.2845904184992
 32
0.0
 13
389.9298735556806
 23
241.2845904184992
 33
0.0
  0
SOLID
  5
745
330
6AE
100
AcDbEntity
  8
dim
  6
ByBlock
 62
     1
100
AcDbTrace
 10
416.1298735556776
 20
241.6179237518325
 30
0.0
 11
416.1298735556776
 21
240.9512570851658
 31
0.0
 12
418.1298735556777
 22
241.2845904184992
 32
0.0
 13
418.1298735556777
 23
241.2845904184992
 33
0.0
  0
MTEXT
  5
746
330
6AE
100
AcDbEntity
  8
dim
  6
ByBlock
 62
     3
100
AcDbMText
 10
404.0298735556791
 20
243.8843290496952
 30
0.0
 40
2.5
 41
0.0
 71
     5
 72
     1
  1
{\fISOCPEUR|b0|i0|c0|p34;%%C}28.2{\H0.7x;\S 0^ -0.1;}
 73
     1
 44
1.0
1001
ACAD
1000
MTEXTBEGIN
1070
    73
1070
     1
1070
    44
1040
1.0
1070
    74
1070
     0
1000
MTEXTEND
  0
POINT
  5
747
330
6AE
100
AcDbEntity
  8
DEFPOINTS
  6
ByBlock
 62
     0
100
AcDbPoint
 10
389.9298735556806
 20
251.3314588799271
 30
0.0
  0
POINT
  5
748
330
6AE
100
AcDbEntity
  8
DEFPOINTS
  6
ByBlock
 62
     0
100
AcDbPoint
 10
418.1298735556777
 20
251.3314588799262
 30
0.0
  0
POINT
  5
749
330
6AE
100
AcDbEntity
  8
DEFPOINTS
  6
ByBlock
 62
     0
100
AcDbPoint
 10
418.1298735556777
 20
241.2845904184992
 30
0.0
  0
ENDBLK
  5
6B0
330
6AE
100
AcDbEntity
  8
0
100
AcDbBlockEnd
  0
BLOCK
  5
6BB
330
6BA
100
AcDbEntity
  8
0
100
AcDbBlockBegin
  2
*D15
 70
     1
 10
0.0
 20
0.0
 30
0.0
  3
*D15
  1

  0
LINE
  5
74A
330
6BA
100
AcDbEntity
  8
dim
  6
ByBlock
 62
     1
370
    15
100
AcDbLine
 10
410.7142819941048
 20
202.93050523387
 30
0.0
 11
438.5973454808094
 21
202.93050523387
 31
0.0
  0
LINE
  5
74B
330
6BA
100
AcDbEntity
  8
dim
  6
ByBlock
 62
     1
370
    15
100
AcDbLine
 10
410.7142819941085
 20
178.9305052338709
 30
0.0
 11
438.5973454808094
 21
178.9305052338709
 31
0.0
  0
LINE
  5
74C
330
6BA
100
AcDbEntity
  8
dim
  6
ByBlock
 62
     1
370
    15
100
AcDbLine
 10
438.0975954808094
 20
200.93050523387
 30
0.0
 11
438.0975954808094
 21
180.9305052338709
 31
0.0
  0
SOLID
  5
74D
330
6BA
100
AcDbEntity
  8
dim
  6
ByBlock
 62
     1
100
AcDbTrace
 10
437.7642621474761
 20
200.93050523387
 30
0.0
 11
438.4309288141427
 21
200.93050523387
 31
0.0
 12
438.0975954808094
 22
202.93050523387
 32
0.0
 13
438.0975954808094
 23
202.93050523387
 33
0.0
  0
SOLID
  5
74E
330
6BA
100
AcDbEntity
  8
dim
  6
ByBlock
 62
     1
100
AcDbTrace
 10
437.7642621474761
 20
180.9305052338709
 30
0.0
 11
438.4309288141427
 21
180.9305052338709
 31
0.0
 12
438.0975954808094
 22
178.9305052338709
 32
0.0
 13
438.0975954808094
 23
178.9305052338709
 33
0.0
  0
MTEXT
  5
74F
330
6BA
100
AcDbEntity
  8
dim
  6
ByBlock
 62
     3
100
AcDbMText
 10
436.0289505285583
 20
190.9305052338709
 30
0.0
 40
2.5
 41
0.0
 71
     5
 72
     1
  1
{\H1.25x;24}
 11
0.0000000000000001
 21
1.0
 31
0.0
 73
     1
 44
1.0
1001
ACAD
1000
MTEXTBEGIN
1070
    73
1070
     1
1070
    44
1040
1.0
1070
    74
1070
     0
1000
MTEXTEND
  0
POINT
  5
750
330
6BA
100
AcDbEntity
  8
DEFPOINTS
  6
ByBlock
 62
     0
100
AcDbPoint
 10
410.2145319941048
 20
202.93050523387
 30
0.0
  0
POINT
  5
751
330
6BA
100
AcDbEntity
  8
DEFPOINTS
  6
ByBlock
 62
     0
100
AcDbPoint
 10
410.2145319941085
 20
178.9305052338709
 30
0.0
  0
POINT
  5
752
330
6BA
100
AcDbEntity
  8
DEFPOINTS
  6
ByBlock
 62
     0
100
AcDbPoint
 10
438.0975954808094
 20
178.9305052338709
 30
0.0
  0
ENDBLK
  5
6BC
330
6BA
100
AcDbEntity
  8
0
100
AcDbBlockEnd
  0
BLOCK
  5
6C7
330
6C6
100
AcDbEntity
  8
0
100
AcDbBlockBegin
  2
*D16
 70
     1
 10
0.0
 20
0.0
 30
0.0
  3
*D16
  1

  0
LINE
  5
765
330
6C6
100
AcDbEntity
  8
dim
  6
ByBlock
 62
     1
370
    15
100
AcDbLine
 10
407.3690777285762
 20
195.9305052338717
 30
0.0
 11
431.3150206666712
 21
195.9305052338717
 31
0.0
  0
LINE
  5
766
330
6C6
100
AcDbEntity
  8
dim
  6
ByBlock
 62
     1
370
    15
100
AcDbLine
 10
407.3690777285762
 20
185.9305052338694
 30
0.0
 11
431.3150206666712
 21
185.9305052338694
 31
0.0
  0
LINE
  5
767
330
6C6
100
AcDbEntity
  8
dim
  6
ByBlock
 62
     1
370
    15
100
AcDbLine
 10
430.8152706666712
 20
193.9305052338717
 30
0.0
 11
430.8152706666712
 21
187.9305052338694
 31
0.0
  0
SOLID
  5
768
330
6C6
100
AcDbEntity
  8
dim
  6
ByBlock
 62
     1
100
AcDbTrace
 10
430.4819373333378
 20
193.9305052338717
 30
0.0
 11
431.1486040000046
 21
193.9305052338717
 31
0.0
 12
430.8152706666712
 22
195.9305052338717
 32
0.0
 13
430.8152706666712
 23
195.9305052338717
 33
0.0
  0
SOLID
  5
769
330
6C6
100
AcDbEntity
  8
dim
  6
ByBlock
 62
     1
100
AcDbTrace
 10
430.4819373333378
 20
187.9305052338694
 30
0.0
 11
431.1486040000046
 21
187.9305052338694
 31
0.0
 12
430.8152706666712
 22
185.9305052338694
 32
0.0
 13
430.8152706666712
 23
185.9305052338694
 33
0.0
  0
MTEXT
  5
76A
330
6C6
100
AcDbEntity
  8
dim
  6
ByBlock
 62
     3
100
AcDbMText
 10
428.7199800800409
 20
190.9305052338705
 30
0.0
 40
2.5
 41
0.0
 71
     5
 72
     1
  1
{\H1.25x;10}
 11
0.0000000000000001
 21
1.0
 31
0.0
 73
     1
 44
1.0
1001
ACAD
1000
MTEXTBEGIN
1070
    73
1070
     1
1070
    44
1040
1.0
1070
    74
1070
     0
1000
MTEXTEND
  0
POINT
  5
76B
330
6C6
100
AcDbEntity
  8
DEFPOINTS
  6
ByBlock
 62
     0
100
AcDbPoint
 10
406.8693277285762
 20
195.9305052338717
 30
0.0
  0
POINT
  5
76C
330
6C6
100
AcDbEntity
  8
DEFPOINTS
  6
ByBlock
 62
     0
100
AcDbPoint
 10
406.8693277285762
 20
185.9305052338694
 30
0.0
  0
POINT
  5
76D
330
6C6
100
AcDbEntity
  8
DEFPOINTS
  6
ByBlock
 62
     0
100
AcDbPoint
 10
430.8152706666712
 20
185.9305052338694
 30
0.0
  0
ENDBLK
  5
6C8
330
6C6
100
AcDbEntity
  8
0
100
AcDbBlockEnd
  0
BLOCK
  5
6D3
330
6D2
100
AcDbEntity
  8
0
100
AcDbBlockBegin
  2
*D17
 70
     1
 10
0.0
 20
0.0
 30
0.0
  3
*D17
  1

  0
LINE
  5
75C
330
6D2
100
AcDbEntity
  8
dim
  6
ByBlock
 62
     1
370
    15
100
AcDbLine
 10
389.029873555701
 20
259.7767088799096
 30
0.0
 11
389.029873555701
 21
234.6020798218637
 31
0.0
  0
LINE
  5
75D
330
6D2
100
AcDbEntity
  8
dim
  6
ByBlock
 62
     1
370
    15
100
AcDbLine
 10
419.0298735556863
 20
259.7767088799287
 30
0.0
 11
419.0298735556863
 21
234.6020798218637
 31
0.0
  0
LINE
  5
75E
330
6D2
100
AcDbEntity
  8
dim
  6
ByBlock
 62
     1
370
    15
100
AcDbLine
 10
391.029873555701
 20
235.1018298218637
 30
0.0
 11
417.0298735556863
 21
235.1018298218637
 31
0.0
  0
SOLID
  5
75F
330
6D2
100
AcDbEntity
  8
dim
  6
ByBlock
 62
     1
100
AcDbTrace
 10
391.029873555701
 20
235.435163155197
 30
0.0
 11
391.029873555701
 21
234.7684964885303
 31
0.0
 12
389.029873555701
 22
235.1018298218637
 32
0.0
 13
389.029873555701
 23
235.1018298218637
 33
0.0
  0
SOLID
  5
760
330
6D2
100
AcDbEntity
  8
dim
  6
ByBlock
 62
     1
100
AcDbTrace
 10
417.0298735556863
 20
235.435163155197
 30
0.0
 11
417.0298735556863
 21
234.7684964885303
 31
0.0
 12
419.0298735556863
 22
235.1018298218637
 32
0.0
 13
419.0298735556863
 23
235.1018298218637
 33
0.0
  0
MTEXT
  5
761
330
6D2
100
AcDbEntity
  8
dim
  6
ByBlock
 62
     3
100
AcDbMText
 10
404.0298735556936
 20
236.8788649514681
 30
0.0
 40
2.5
 41
0.0
 71
     5
 72
     1
  1
M30*1.5
 73
     1
 44
1.0
1001
ACAD
1000
MTEXTBEGIN
1070
    73
1070
     1
1070
    44
1040
1.0
1070
    74
1070
     0
1000
MTEXTEND
  0
POINT
  5
762
330
6D2
100
AcDbEntity
  8
DEFPOINTS
  6
ByBlock
 62
     0
100
AcDbPoint
 10
389.029873555701
 20
260.2764588799096
 30
0.0
  0
POINT
  5
763
330
6D2
100
AcDbEntity
  8
DEFPOINTS
  6
ByBlock
 62
     0
100
AcDbPoint
 10
419.0298735556863
 20
260.2764588799287
 30
0.0
  0
POINT
  5
764
330
6D2
100
AcDbEntity
  8
DEFPOINTS
  6
ByBlock
 62
     0
100
AcDbPoint
 10
419.0298735556863
 20
235.1018298218637
 30
0.0
  0
ENDBLK
  5
6D4
330
6D2
100
AcDbEntity
  8
0
100
AcDbBlockEnd
  0
BLOCK
  5
6DF
330
6DE
100
AcDbEntity
  8
0
100
AcDbBlockBegin
  2
*D18
 70
     1
 10
0.0
 20
0.0
 30
0.0
  3
*D18
  1

  0
LINE
  5
70B
330
6DE
100
AcDbEntity
  8
dim
  6
ByBlock
 62
     1
370
    15
100
AcDbLine
 10
398.02987355565
 20
321.4812088799313
 30
0.0
 11
398.02987355565
 21
337.4319636860978
 31
0.0
  0
LINE
  5
70C
330
6DE
100
AcDbEntity
  8
dim
  6
ByBlock
 62
     1
370
    15
100
AcDbLine
 10
410.0298735556791
 20
321.4812088799231
 30
0.0
 11
410.0298735556791
 21
337.4319636860978
 31
0.0
  0
LINE
  5
70D
330
6DE
100
AcDbEntity
  8
dim
  6
ByBlock
 62
     1
370
    15
100
AcDbLine
 10
400.02987355565
 20
336.9322136860978
 30
0.0
 11
408.0298735556791
 21
336.9322136860978
 31
0.0
  0
SOLID
  5
70E
330
6DE
100
AcDbEntity
  8
dim
  6
ByBlock
 62
     1
100
AcDbTrace
 10
400.02987355565
 20
337.2655470194311
 30
0.0
 11
400.02987355565
 21
336.5988803527645
 31
0.0
 12
398.02987355565
 22
336.9322136860978
 32
0.0
 13
398.02987355565
 23
336.9322136860978
 33
0.0
  0
SOLID
  5
70F
330
6DE
100
AcDbEntity
  8
dim
  6
ByBlock
 62
     1
100
AcDbTrace
 10
408.0298735556791
 20
337.2655470194311
 30
0.0
 11
408.0298735556791
 21
336.5988803527645
 31
0.0
 12
410.0298735556791
 22
336.9322136860978
 32
0.0
 13
410.0298735556791
 23
336.9322136860978
 33
0.0
  0
MTEXT
  5
710
330
6DE
100
AcDbEntity
  8
dim
  6
ByBlock
 62
     3
100
AcDbMText
 10
404.0298735556718
 20
338.6870796478987
 30
0.0
 40
2.5
 41
0.0
 71
     5
 72
     1
  1
{\fISOCPEUR|b0|i0|c0|p34;%%C}12
 73
     1
 44
1.0
1001
ACAD
1000
MTEXTBEGIN
1070
    73
1070
     1
1070
    44
1040
1.0
1070
    74
1070
     0
1000
MTEXTEND
  0
POINT
  5
711
330
6DE
100
AcDbEntity
  8
DEFPOINTS
  6
ByBlock
 62
     0
100
AcDbPoint
 10
398.02987355565
 20
320.9814588799313
 30
0.0
  0
POINT
  5
712
330
6DE
100
AcDbEntity
  8
DEFPOINTS
  6
ByBlock
 62
     0
100
AcDbPoint
 10
410.0298735556791
 20
320.9814588799231
 30
0.0
  0
POINT
  5
713
330
6DE
100
AcDbEntity
  8
DEFPOINTS
  6
ByBlock
 62
     0
100
AcDbPoint
 10
410.0298735556791
 20
336.9322136860978
 30
0.0
  0
ENDBLK
  5
6E0
330
6DE
100
AcDbEntity
  8
0
100
AcDbBlockEnd
  0
BLOCK
  5
6EB
330
6EA
100
AcDbEntity
  8
0
100
AcDbBlockBegin
  2
*D19
 70
     1
 10
0.0
 20
0.0
 30
0.0
  3
*D19
  1

  0
LINE
  5
714
330
6EA
100
AcDbEntity
  8
dim
  6
ByBlock
 62
     1
370
    15
100
AcDbLine
 10
404.5296235556791
 20
330.9814588799231
 30
0.0
 11
446.3325242299228
 21
330.9814588799231
 31
0.0
  0
LINE
  5
715
330
6EA
100
AcDbEntity
  8
dim
  6
ByBlock
 62
     1
370
    15
100
AcDbLine
 10
414.7196235556815
 20
249.9814588799258
 30
0.0
 11
446.3325242299228
 21
249.9814588799258
 31
0.0
  0
LINE
  5
716
330
6EA
100
AcDbEntity
  8
dim
  6
ByBlock
 62
     1
370
    15
100
AcDbLine
 10
445.8327742299228
 20
328.9814588799231
 30
0.0
 11
445.8327742299228
 21
251.9814588799258
 31
0.0
  0
SOLID
  5
717
330
6EA
100
AcDbEntity
  8
dim
  6
ByBlock
 62
     1
100
AcDbTrace
 10
445.4994408965895
 20
328.9814588799231
 30
0.0
 11
446.166107563256
 21
328.9814588799231
 31
0.0
 12
445.8327742299228
 22
330.9814588799231
 32
0.0
 13
445.8327742299228
 23
330.9814588799231
 33
0.0
  0
SOLID
  5
718
330
6EA
100
AcDbEntity
  8
dim
  6
ByBlock
 62
     1
100
AcDbTrace
 10
445.4994408965895
 20
251.9814588799258
 30
0.0
 11
446.166107563256
 21
251.9814588799258
 31
0.0
 12
445.8327742299228
 22
249.9814588799258
 32
0.0
 13
445.8327742299228
 23
249.9814588799258
 33
0.0
  0
MTEXT
  5
719
330
6EA
100
AcDbEntity
  8
dim
  6
ByBlock
 62
     3
100
AcDbMText
 10
444.0565917606185
 20
290.4564743025039
 30
0.0
 40
2.5
 41
0.0
 71
     5
 72
     1
  1
81
 11
0.0000000000000001
 21
1.0
 31
0.0
 73
     1
 44
1.0
1001
ACAD
1000
MTEXTBEGIN
1070
    73
1070
     1
1070
    44
1040
1.0
1070
    74
1070
     0
1000
MTEXTEND
  0
POINT
  5
71A
330
6EA
100
AcDbEntity
  8
DEFPOINTS
  6
ByBlock
 62
     0
100
AcDbPoint
 10
404.0298735556791
 20
330.9814588799231
 30
0.0
  0
POINT
  5
71B
330
6EA
100
AcDbEntity
  8
DEFPOINTS
  6
ByBlock
 62
     0
100
AcDbPoint
 10
414.2198735556815
 20
249.9814588799258
 30
0.0
  0
POINT
  5
71C
330
6EA
100
AcDbEntity
  8
DEFPOINTS
  6
ByBlock
 62
     0
100
AcDbPoint
 10
445.8327742299228
 20
249.9814588799258
 30
0.0
  0
ENDBLK
  5
6EC
330
6EA
100
AcDbEntity
  8
0
100
AcDbBlockEnd
  0
BLOCK
  5
6F7
330
6F6
100
AcDbEntity
  8
0
100
AcDbBlockBegin
  2
*D20
 70
     1
 10
0.0
 20
0.0
 30
0.0
  3
*D20
  1

  0
LINE
  5
71D
330
6F6
100
AcDbEntity
  8
dim
  6
ByBlock
 62
     1
370
    15
100
AcDbLine
 10
414.7196235556815
 20
249.9814588799258
 30
0.0
 11
424.5036956467205
 21
249.9814588799258
 31
0.0
  0
LINE
  5
71E
330
6F6
100
AcDbEntity
  8
dim
  6
ByBlock
 62
     1
370
    15
100
AcDbLine
 10
418.6296235556777
 20
259.3764588799281
 30
0.0
 11
424.5036956467205
 21
259.3764588799281
 31
0.0
  0
LINE
  5
71F
330
6F6
100
AcDbEntity
  8
dim
  6
ByBlock
 62
     1
370
    15
100
AcDbLine
 10
424.0039456467205
 20
251.9814588799258
 30
0.0
 11
424.0039456467205
 21
257.3764588799281
 31
0.0
  0
SOLID
  5
720
330
6F6
100
AcDbEntity
  8
dim
  6
ByBlock
 62
     1
100
AcDbTrace
 10
423.6706123133871
 20
251.9814588799258
 30
0.0
 11
424.3372789800537
 21
251.9814588799258
 31
0.0
 12
424.0039456467205
 22
249.9814588799258
 32
0.0
 13
424.0039456467205
 23
249.9814588799258
 33
0.0
  0
SOLID
  5
721
330
6F6
100
AcDbEntity
  8
dim
  6
ByBlock
 62
     1
100
AcDbTrace
 10
423.6706123133871
 20
257.3764588799281
 30
0.0
 11
424.3372789800537
 21
257.3764588799281
 31
0.0
 12
424.0039456467205
 22
259.3764588799281
 32
0.0
 13
424.0039456467205
 23
259.3764588799281
 33
0.0
  0
MTEXT
  5
722
330
6F6
100
AcDbEntity
  8
dim
  6
ByBlock
 62
     3
100
AcDbMText
 10
422.2277631774161
 20
254.6789588799283
 30
0.0
 40
2.5
 41
0.0
 71
     5
 72
     1
  1
9.4
 11
0.0000000000000001
 21
1.0
 31
0.0
 73
     1
 44
1.0
1001
ACAD
1000
MTEXTBEGIN
1070
    73
1070
     1
1070
    44
1040
1.0
1070
    74
1070
     0
1000
MTEXTEND
  0
POINT
  5
723
330
6F6
100
AcDbEntity
  8
DEFPOINTS
  6
ByBlock
 62
     0
100
AcDbPoint
 10
414.2198735556815
 20
249.9814588799258
 30
0.0
  0
POINT
  5
724
330
6F6
100
AcDbEntity
  8
DEFPOINTS
  6
ByBlock
 62
     0
100
AcDbPoint
 10
418.1298735556777
 20
259.3764588799281
 30
0.0
  0
POINT
  5
725
330
6F6
100
AcDbEntity
  8
DEFPOINTS
  6
ByBlock
 62
     0
100
AcDbPoint
 10
424.0039456467205
 20
259.3764588799281
 30
0.0
  0
ENDBLK
  5
6F8
330
6F6
100
AcDbEntity
  8
0
100
AcDbBlockEnd
  0
BLOCK
  5
80E
330
80D
100
AcDbEntity
  8
0
100
AcDbBlockBegin
  2
*D21
 70
     1
 10
0.0
 20
0.0
 30
0.0
  3
*D21
  1

  0
LINE
  5
819
330
80D
100
AcDbEntity
  8
dim
  6
ByBlock
 62
     1
370
    15
100
AcDbLine
 10
389.9298735556806
 20
250.8317088799271
 30
0.0
 11
389.9298735556806
 21
240.7848404184992
 31
0.0
  0
LINE
  5
81A
330
80D
100
AcDbEntity
  8
dim
  6
ByBlock
 62
     1
370
    15
100
AcDbLine
 10
418.1298735556777
 20
250.8317088799262
 30
0.0
 11
418.1298735556777
 21
240.7848404184992
 31
0.0
  0
LINE
  5
81B
330
80D
100
AcDbEntity
  8
dim
  6
ByBlock
 62
     1
370
    15
100
AcDbLine
 10
391.9298735556806
 20
241.2845904184992
 30
0.0
 11
416.1298735556776
 21
241.2845904184992
 31
0.0
  0
SOLID
  5
81C
330
80D
100
AcDbEntity
  8
dim
  6
ByBlock
 62
     1
100
AcDbTrace
 10
391.9298735556806
 20
241.6179237518325
 30
0.0
 11
391.9298735556806
 21
240.9512570851659
 31
0.0
 12
389.9298735556806
 22
241.2845904184992
 32
0.0
 13
389.9298735556806
 23
241.2845904184992
 33
0.0
  0
SOLID
  5
81D
330
80D
100
AcDbEntity
  8
dim
  6
ByBlock
 62
     1
100
AcDbTrace
 10
416.1298735556776
 20
241.6179237518325
 30
0.0
 11
416.1298735556776
 21
240.9512570851659
 31
0.0
 12
418.1298735556777
 22
241.2845904184992
 32
0.0
 13
418.1298735556777
 23
241.2845904184992
 33
0.0
  0
MTEXT
  5
81E
330
80D
100
AcDbEntity
  8
dim
  6
ByBlock
 62
     3
100
AcDbMText
 10
404.0298735556791
 20
243.0607728878034
 30
0.0
 40
2.5
 41
0.0
 71
     5
 72
     1
  1
{\fISOCPEUR|b0|i0|c0|p34;%%C}28.2
 73
     1
 44
1.0
1001
ACAD
1000
MTEXTBEGIN
1070
    73
1070
     1
1070
    44
1040
1.0
1070
    74
1070
     0
1000
MTEXTEND
  0
POINT
  5
81F
330
80D
100
AcDbEntity
  8
DEFPOINTS
  6
ByBlock
 62
     0
100
AcDbPoint
 10
389.9298735556806
 20
251.3314588799271
 30
0.0
  0
POINT
  5
820
330
80D
100
AcDbEntity
  8
DEFPOINTS
  6
ByBlock
 62
     0
100
AcDbPoint
 10
418.1298735556777
 20
251.3314588799262
 30
0.0
  0
POINT
  5
821
330
80D
100
AcDbEntity
  8
DEFPOINTS
  6
ByBlock
 62
     0
100
AcDbPoint
 10
418.1298735556777
 20
241.2845904184992
 30
0.0
  0
ENDBLK
  5
80F
330
80D
100
AcDbEntity
  8
0
100
AcDbBlockEnd
  0
ENDSEC
  0
SECTION
  2
ENTITIES
  0
MTEXT
  5
47C
330
1F
100
AcDbEntity
  8
1L
 62
     3
100
AcDbMText
 10
-13700.68235259852
 20
-4231.069522393863
 30
0.0
 40
2.5
 41
1.699059745345948
 71
     1
 72
     1
  1

 73
     1
 44
1.0
1001
ACAD
1000
MTEXTBEGIN
1070
    73
1070
     1
1070
    44
1040
1.0
1070
    74
1070
     0
1000
MTEXTEND
  0
REGION
  5
47D
330
1F
100
AcDbEntity
  8
1L
  6
ByBlock
100
AcDbModelerGeometry
 70
     1
  1
koo o o o           
  1
ni ^ *+0;:,4 ^ *+0\^ [ nf ^ LR mnfqoqoqjioo QK o  
  1
mjqlffffffffffffff fqfffffffffffffffj:rooh n:rono 
1001
ACAD_OBJECT_CHANGE_GUID
1070
     1
1071
1415677942
1070
 24067
1070
 18010
1070
   146
1070
    38
1070
     5
1070
    30
1070
   243
1070
   101
1070
   215
1070
    80
  0
MTEXT
  5
47E
102
{ACAD_XDICTIONARY
360
47F
102
}
330
1F
100
AcDbEntity
  8
dim @ 1
  6
ByBlock
 62
     3
100
AcDbMText
 10
-12427.12621864992
 20
-3728.410122995749
 30
0.0
 40
2.5
 41
2.916429696650084
 71
     1
 72
     1
  1
 
 73
     1
 44
1.0
1001
AcadAnnotative
1000
AnnotativeData
1002
{
1070
     1
1070
     0
1002
}
1001
ACAD
1000
MTEXTBEGIN
1070
    73
1070
     1
1070
    44
1040
1.0
1070
    74
1070
     0
1000
MTEXTEND
  0
MTEXT
  5
483
102
{ACAD_XDICTIONARY
360
484
102
}
330
1F
100
AcDbEntity
  8
dim @ 1
  6
ByBlock
 62
     3
100
AcDbMText
 10
-12483.13476230066
 20
-3662.934075103013
 30
0.0
 40
2.5
 41
2.916429696650084
 71
     1
 72
     1
  1

 73
     1
 44
1.0
1001
AcadAnnotative
1000
AnnotativeData
1002
{
1070
     1
1070
     0
1002
}
1001
ACAD
1000
MTEXTBEGIN
1070
    73
1070
     1
1070
    44
1040
1.0
1070
    74
1070
     0
1000
MTEXTEND
  0
MTEXT
  5
488
102
{ACAD_XDICTIONARY
360
489
102
}
330
1F
100
AcDbEntity
  8
dim @ 1
  6
ByBlock
 62
     3
100
AcDbMText
 10
-12674.21000104085
 20
-3800.670892695623
 30
0.0
 40
2.5
 41
2.916429696650084
 71
     1
 72
     1
  1

 73
     1
 44
1.0
1001
AcadAnnotative
1000
AnnotativeData
1002
{
1070
     1
1070
     0
1002
}
1001
ACAD
1000
MTEXTBEGIN
1070
    73
1070
     1
1070
    44
1040
1.0
1070
    74
1070
     0
1000
MTEXTEND
  0
MTEXT
  5
48D
102
{ACAD_XDICTIONARY
360
48E
102
}
330
1F
100
AcDbEntity
  8
dim @ 1
  6
ByBlock
 62
     3
100
AcDbMText
 10
-12666.95276819311
 20
-3811.15688454312
 30
0.0
 40
2.5
 41
2.916429696650084
 71
     1
 72
     1
  1

 73
     1
 44
1.0
1001
AcadAnnotative
1000
AnnotativeData
1002
{
1070
     1
1070
     0
1002
}
1001
ACAD
1000
MTEXTBEGIN
1070
    73
1070
     1
1070
    44
1040
1.0
1070
    74
1070
     0
1000
MTEXTEND
  0
MTEXT
  5
492
102
{ACAD_XDICTIONARY
360
493
102
}
330
1F
100
AcDbEntity
  8
dim @ 1
  6
ByBlock
 62
     3
100
AcDbMText
 10
-12666.68068176055
 20
-3818.092747653183
 30
0.0
 40
2.5
 41
2.916429696650084
 71
     1
 72
     1
  1

 73
     1
 44
1.0
1001
AcadAnnotative
1000
AnnotativeData
1002
{
1070
     1
1070
     0
1002
}
1001
ACAD
1000
MTEXTBEGIN
1070
    73
1070
     1
1070
    44
1040
1.0
1070
    74
1070
     0
1000
MTEXTEND
  0
MTEXT
  5
497
102
{ACAD_XDICTIONARY
360
498
102
}
330
1F
100
AcDbEntity
  8
dim @ 1
  6
ByBlock
 62
     3
100
AcDbMText
 10
-13035.23606259618
 20
-3855.364552657458
 30
0.0
 40
2.5
 41
2.916429696650084
 71
     9
 72
     1
  1

 73
     1
 44
1.0
1001
AcadAnnotative
1000
AnnotativeData
1002
{
1070
     1
1070
     0
1002
}
1001
ACAD
1000
MTEXTBEGIN
1070
    73
1070
     1
1070
    44
1040
1.0
1070
    74
1070
     0
1000
MTEXTEND
  0
MTEXT
  5
49C
102
{ACAD_XDICTIONARY
360
49D
102
}
330
1F
100
AcDbEntity
  8
dim @ 1
  6
ByBlock
 62
     3
100
AcDbMText
 10
-13041.88035348032
 20
-3844.757591371616
 30
0.0
 40
2.5
 41
2.916429696650084
 71
     9
 72
     1
  1

 73
     1
 44
1.0
1001
AcadAnnotative
1000
AnnotativeData
1002
{
1070
     1
1070
     0
1002
}
1001
ACAD
1000
MTEXTBEGIN
1070
    73
1070
     1
1070
    44
1040
1.0
1070
    74
1070
     0
1000
MTEXTEND
  0
MTEXT
  5
4A1
102
{ACAD_XDICTIONARY
360
4A2
102
}
330
1F
100
AcDbEntity
  8
dim @ 1
  6
ByBlock
 62
     3
100
AcDbMText
 10
-12999.33594619135
 20
-3850.818622183462
 30
0.0
 40
2.5
 41
2.916429696650084
 71
     1
 72
     1
  1

 73
     1
 44
1.0
1001
AcadAnnotative
1000
AnnotativeData
1002
{
1070
     1
1070
     0
1002
}
1001
ACAD
1000
MTEXTBEGIN
1070
    73
1070
     1
1070
    44
1040
1.0
1070
    74
1070
     0
1000
MTEXTEND
  0
MTEXT
  5
4A6
102
{ACAD_XDICTIONARY
360
4A7
102
}
330
1F
100
AcDbEntity
  8
dim @ 1
  6
ByBlock
 62
     3
100
AcDbMText
 10
-12995.64753055155
 20
-3819.484883123939
 30
0.0
 40
2.5
 41
2.916429696650084
 71
     1
 72
     1
  1

 73
     1
 44
1.0
1001
AcadAnnotative
1000
AnnotativeData
1002
{
1070
     1
1070
     0
1002
}
1001
ACAD
1000
MTEXTBEGIN
1070
    73
1070
     1
1070
    44
1040
1.0
1070
    74
1070
     0
1000
MTEXTEND
  0
MTEXT
  5
4AB
102
{ACAD_XDICTIONARY
360
4AC
102
}
330
1F
100
AcDbEntity
  8
dim @ 1
  6
ByBlock
 62
     3
100
AcDbMText
 10
-12995.6630783477
 20
-3803.470954519539
 30
0.0
 40
2.5
 41
2.916429696650084
 71
     1
 72
     1
  1

 73
     1
 44
1.0
1001
AcadAnnotative
1000
AnnotativeData
1002
{
1070
     1
1070
     0
1002
}
1001
ACAD
1000
MTEXTBEGIN
1070
    73
1070
     1
1070
    44
1040
1.0
1070
    74
1070
     0
1000
MTEXTEND
  0
MTEXT
  5
4B0
102
{ACAD_XDICTIONARY
360
4B1
102
}
330
1F
100
AcDbEntity
  8
dim @ 1
  6
ByBlock
 62
     3
100
AcDbMText
 10
-13015.1560838724
 20
-3818.321116429276
 30
0.0
 40
2.5
 41
2.916429696650084
 71
     9
 72
     1
  1

 73
     1
 44
1.0
1001
AcadAnnotative
1000
AnnotativeData
1002
{
1070
     1
1070
     0
1002
}
1001
ACAD
1000
MTEXTBEGIN
1070
    73
1070
     1
1070
    44
1040
1.0
1070
    74
1070
     0
1000
MTEXTEND
  0
MTEXT
  5
4B5
102
{ACAD_XDICTIONARY
360
4B6
102
}
330
1F
100
AcDbEntity
  8
dim @ 1
  6
ByBlock
 62
     3
100
AcDbMText
 10
-13097.64705319716
 20
-3841.966305987519
 30
0.0
 40
2.5
 41
2.916429696650084
 71
     1
 72
     1
  1

 73
     1
 44
1.0
1001
AcadAnnotative
1000
AnnotativeData
1002
{
1070
     1
1070
     0
1002
}
1001
ACAD
1000
MTEXTBEGIN
1070
    73
1070
     1
1070
    44
1040
1.0
1070
    74
1070
     0
1000
MTEXTEND
  0
MTEXT
  5
4BA
102
{ACAD_XDICTIONARY
360
4BB
102
}
330
1F
100
AcDbEntity
  8
dim @ 1
  6
ByBlock
 62
     3
100
AcDbMText
 10
-13069.83025191376
 20
-3786.192345423641
 30
0.0
 40
2.5
 41
2.916429696650084
 71
     1
 72
     1
  1

 73
     1
 44
1.0
1001
AcadAnnotative
1000
AnnotativeData
1002
{
1070
     1
1070
     0
1002
}
1001
ACAD
1000
MTEXTBEGIN
1070
    73
1070
     1
1070
    44
1040
1.0
1070
    74
1070
     0
1000
MTEXTEND
  0
MTEXT
  5
4BF
102
{ACAD_XDICTIONARY
360
4C0
102
}
330
1F
100
AcDbEntity
  8
dim @ 1
  6
ByBlock
 62
     3
100
AcDbMText
 10
-13411.19971319425
 20
-3715.430264592159
 30
0.0
 40
2.5
 41
2.916429696650084
 71
     9
 72
     1
  1

 73
     1
 44
1.0
1001
AcadAnnotative
1000
AnnotativeData
1002
{
1070
     1
1070
     0
1002
}
1001
ACAD
1000
MTEXTBEGIN
1070
    73
1070
     1
1070
    44
1040
1.0
1070
    74
1070
     0
1000
MTEXTEND
  0
MTEXT
  5
4C4
102
{ACAD_XDICTIONARY
360
4C5
102
}
330
1F
100
AcDbEntity
  8
dim @ 1
  6
ByBlock
 62
     3
100
AcDbMText
 10
-13300.5117073618
 20
-3835.311013019924
 30
0.0
 40
2.5
 41
2.916429696650084
 71
     1
 72
     1
  1

 73
     1
 44
1.0
1001
AcadAnnotative
1000
AnnotativeData
1002
{
1070
     1
1070
     0
1002
}
1001
ACAD
1000
MTEXTBEGIN
1070
    73
1070
     1
1070
    44
1040
1.0
1070
    74
1070
     0
1000
MTEXTEND
  0
MTEXT
  5
4C9
102
{ACAD_XDICTIONARY
360
4CA
102
}
330
1F
100
AcDbEntity
  8
dim @ 1
  6
ByBlock
 62
     3
100
AcDbMText
 10
-13294.73809306185
 20
-3847.476196021675
 30
0.0
 40
2.5
 41
2.916429696650084
 71
     1
 72
     1
  1

 73
     1
 44
1.0
1001
AcadAnnotative
1000
AnnotativeData
1002
{
1070
     1
1070
     0
1002
}
1001
ACAD
1000
MTEXTBEGIN
1070
    73
1070
     1
1070
    44
1040
1.0
1070
    74
1070
     0
1000
MTEXTEND
  0
MTEXT
  5
4CE
102
{ACAD_XDICTIONARY
360
4CF
102
}
330
1F
100
AcDbEntity
  8
dim @ 1
  6
ByBlock
 62
     3
100
AcDbMText
 10
-13286.84579254083
 20
-3856.378869929486
 30
0.0
 40
2.5
 41
2.916429696650084
 71
     1
 72
     1
  1

 73
     1
 44
1.0
1001
AcadAnnotative
1000
AnnotativeData
1002
{
1070
     1
1070
     0
1002
}
1001
ACAD
1000
MTEXTBEGIN
1070
    73
1070
     1
1070
    44
1040
1.0
1070
    74
1070
     0
1000
MTEXTEND
  0
MTEXT
  5
4D3
102
{ACAD_XDICTIONARY
360
4D4
102
}
330
1F
100
AcDbEntity
  8
dim @ 1
  6
ByBlock
 62
     3
100
AcDbMText
 10
-13922.76799672378
 20
-3766.27017342755
 30
0.0
 40
2.5
 41
2.916429696650084
 71
     1
 72
     1
  1

 73
     1
 44
1.0
1001
AcadAnnotative
1000
AnnotativeData
1002
{
1070
     1
1070
     0
1002
}
1001
ACAD
1000
MTEXTBEGIN
1070
    73
1070
     1
1070
    44
1040
1.0
1070
    74
1070
     0
1000
MTEXTEND
  0
MTEXT
  5
4D8
102
{ACAD_XDICTIONARY
360
4D9
102
}
330
1F
100
AcDbEntity
  8
dim @ 1
  6
ByBlock
 62
     3
100
AcDbMText
 10
-14813.86122926279
 20
-3838.250936945016
 30
0.0
 40
2.5
 41
2.916429696650084
 71
     1
 72
     1
  1

 73
     1
 44
1.0
1001
AcadAnnotative
1000
AnnotativeData
1002
{
1070
     1
1070
     0
1002
}
1001
ACAD
1000
MTEXTBEGIN
1070
    73
1070
     1
1070
    44
1040
1.0
1070
    74
1070
     0
1000
MTEXTEND
  0
MTEXT
  5
4DD
102
{ACAD_XDICTIONARY
360
4DE
102
}
330
1F
100
AcDbEntity
  8
dim @ 1
  6
ByBlock
 62
     3
100
AcDbMText
 10
-14854.5333231004
 20
-3852.74354816064
 30
0.0
 40
2.5
 41
2.916429696650084
 71
     9
 72
     1
  1

 73
     1
 44
1.0
1001
AcadAnnotative
1000
AnnotativeData
1002
{
1070
     1
1070
     0
1002
}
1001
ACAD
1000
MTEXTBEGIN
1070
    73
1070
     1
1070
    44
1040
1.0
1070
    74
1070
     0
1000
MTEXTEND
  0
MTEXT
  5
4E2
102
{ACAD_XDICTIONARY
360
4E3
102
}
330
1F
100
AcDbEntity
  8
dim @ 1
  6
ByBlock
 62
     3
100
AcDbMText
 10
-14864.1849165547
 20
-3838.49425066337
 30
0.0
 40
2.5
 41
2.916429696650084
 71
     9
 72
     1
  1

 73
     1
 44
1.0
1001
AcadAnnotative
1000
AnnotativeData
1002
{
1070
     1
1070
     0
1002
}
1001
ACAD
1000
MTEXTBEGIN
1070
    73
1070
     1
1070
    44
1040
1.0
1070
    74
1070
     0
1000
MTEXTEND
  0
MTEXT
  5
4E7
102
{ACAD_XDICTIONARY
360
4E8
102
}
330
1F
100
AcDbEntity
  8
dim @ 1
  6
ByBlock
 62
     3
100
AcDbMText
 10
-14862.00583312542
 20
-3831.745058341581
 30
0.0
 40
2.5
 41
2.916429696650084
 71
     9
 72
     1
  1
 
 73
     1
 44
1.0
1001
AcadAnnotative
1000
AnnotativeData
1002
{
1070
     1
1070
     0
1002
}
1001
ACAD
1000
MTEXTBEGIN
1070
    73
1070
     1
1070
    44
1040
1.0
1070
    74
1070
     0
1000
MTEXTEND
  0
MTEXT
  5
4EC
102
{ACAD_XDICTIONARY
360
4ED
102
}
330
1F
100
AcDbEntity
  8
dim @ 1
  6
ByBlock
 62
     3
100
AcDbMText
 10
-15592.40481858757
 20
-3691.36975348955
 30
0.0
 40
2.5
 41
2.916429696650084
 71
     9
 72
     1
  1

 73
     1
 44
1.0
1001
AcadAnnotative
1000
AnnotativeData
1002
{
1070
     1
1070
     0
1002
}
1001
ACAD
1000
MTEXTBEGIN
1070
    73
1070
     1
1070
    44
1040
1.0
1070
    74
1070
     0
1000
MTEXTEND
  0
MTEXT
  5
4F1
102
{ACAD_XDICTIONARY
360
4F2
102
}
330
1F
100
AcDbEntity
  8
dim @ 1
  6
ByBlock
 62
     3
100
AcDbMText
 10
-15558.0469239622
 20
-3710.007972237146
 30
0.0
 40
2.5
 41
2.916429696650084
 71
     1
 72
     1
  1

 73
     1
 44
1.0
1001
AcadAnnotative
1000
AnnotativeData
1002
{
1070
     1
1070
     0
1002
}
1001
ACAD
1000
MTEXTBEGIN
1070
    73
1070
     1
1070
    44
1040
1.0
1070
    74
1070
     0
1000
MTEXTEND
  0
MTEXT
  5
4F6
102
{ACAD_XDICTIONARY
360
4F7
102
}
330
1F
100
AcDbEntity
  8
dim @ 1
  6
ByBlock
 62
     3
100
AcDbMText
 10
-15846.04379103098
 20
-3658.833768243773
 30
0.0
 40
2.5
 41
2.916429696650084
 71
     9
 72
     1
  1

 73
     1
 44
1.0
1001
AcadAnnotative
1000
AnnotativeData
1002
{
1070
     1
1070
     0
1002
}
1001
ACAD
1000
MTEXTBEGIN
1070
    73
1070
     1
1070
    44
1040
1.0
1070
    74
1070
     0
1000
MTEXTEND
  0
MTEXT
  5
4FB
102
{ACAD_XDICTIONARY
360
4FC
102
}
330
1F
100
AcDbEntity
  8
dim @ 1
  6
ByBlock
 62
     3
100
AcDbMText
 10
-16208.58311564042
 20
-3628.450136663875
 30
0.0
 40
2.5
 41
2.916429696650084
 71
     9
 72
     1
  1

 73
     1
 44
1.0
1001
AcadAnnotative
1000
AnnotativeData
1002
{
1070
     1
1070
     0
1002
}
1001
ACAD
1000
MTEXTBEGIN
1070
    73
1070
     1
1070
    44
1040
1.0
1070
    74
1070
     0
1000
MTEXTEND
  0
MTEXT
  5
500
102
{ACAD_XDICTIONARY
360
501
102
}
330
1F
100
AcDbEntity
  8
dim @ 1
  6
ByBlock
 62
     3
100
AcDbMText
 10
-16130.57130628566
 20
-4508.098749781889
 30
0.0
 40
2.5
 41
2.916429696650084
 71
     9
 72
     1
  1

 73
     1
 44
1.0
1001
AcadAnnotative
1000
AnnotativeData
1002
{
1070
     1
1070
     0
1002
}
1001
ACAD
1000
MTEXTBEGIN
1070
    73
1070
     1
1070
    44
1040
1.0
1070
    74
1070
     0
1000
MTEXTEND
  0
MTEXT
  5
505
102
{ACAD_XDICTIONARY
360
506
102
}
330
1F
100
AcDbEntity
  8
dim @ 1
  6
ByBlock
 62
     3
100
AcDbMText
 10
-15918.98709051167
 20
-4486.82823004421
 30
0.0
 40
2.5
 41
2.916429696650084
 71
     1
 72
     1
  1

 73
     1
 44
1.0
1001
AcadAnnotative
1000
AnnotativeData
1002
{
1070
     1
1070
     0
1002
}
1001
ACAD
1000
MTEXTBEGIN
1070
    73
1070
     1
1070
    44
1040
1.0
1070
    74
1070
     0
1000
MTEXTEND
  0
MTEXT
  5
50A
102
{ACAD_XDICTIONARY
360
50B
102
}
330
1F
100
AcDbEntity
  8
dim @ 1
  6
ByBlock
 62
     3
100
AcDbMText
 10
-15436.69922878944
 20
-4497.419980668566
 30
0.0
 40
2.5
 41
2.916429696650084
 71
     1
 72
     1
  1

 73
     1
 44
1.0
1001
AcadAnnotative
1000
AnnotativeData
1002
{
1070
     1
1070
     0
1002
}
1001
ACAD
1000
MTEXTBEGIN
1070
    73
1070
     1
1070
    44
1040
1.0
1070
    74
1070
     0
1000
MTEXTEND
  0
MTEXT
  5
50F
330
1F
100
AcDbEntity
  8
dim
  6
ByBlock
 62
     3
100
AcDbMText
 10
-16131.53081507624
 20
-4506.610290759726
 30
0.0
 40
2.5
 41
2.916429696650084
 71
     9
 72
     1
  1

 73
     1
 44
1.0
1001
ACAD
1000
MTEXTBEGIN
1070
    73
1070
     1
1070
    44
1040
1.0
1070
    74
1070
     0
1000
MTEXTEND
  0
MTEXT
  5
510
102
{ACAD_XDICTIONARY
360
511
102
}
330
1F
100
AcDbEntity
  8
dim @ 1
  6
ByBlock
 62
     3
100
AcDbMText
 10
-14512.36374898633
 20
-5570.994951990743
 30
0.0
 40
1.8
 41
2.916429696650084
 71
     1
 72
     1
  1

 73
     1
 44
1.0
1001
AcadAnnotative
1000
AnnotativeData
1002
{
1070
     1
1070
     0
1002
}
1001
ACAD
1000
MTEXTBEGIN
1070
    73
1070
     1
1070
    44
1040
1.0
1070
    74
1070
     0
1000
MTEXTEND
  0
MTEXT
  5
515
102
{ACAD_XDICTIONARY
360
516
102
}
330
1F
100
AcDbEntity
  8
dim @ 1
  6
ByBlock
 62
     3
100
AcDbMText
 10
-14515.99025422164
 20
-5547.914395439864
 30
0.0
 40
1.5
 41
2.916429696650084
 71
     1
 72
     1
  1

 73
     1
 44
1.0
1001
AcadAnnotative
1000
AnnotativeData
1002
{
1070
     1
1070
     0
1002
}
1001
ACAD
1000
MTEXTBEGIN
1070
    73
1070
     1
1070
    44
1040
1.0
1070
    74
1070
     0
1000
MTEXTEND
  0
MTEXT
  5
51A
102
{ACAD_XDICTIONARY
360
51B
102
}
330
1F
100
AcDbEntity
  8
dim @ 1
  6
ByBlock
 62
     3
100
AcDbMText
 10
-14468.17127260691
 20
-5563.538003098735
 30
0.0
 40
1.5
 41
2.916429696650084
 71
     1
 72
     1
  1

 73
     1
 44
1.0
1001
AcadAnnotative
1000
AnnotativeData
1002
{
1070
     1
1070
     0
1002
}
1001
ACAD
1000
MTEXTBEGIN
1070
    73
1070
     1
1070
    44
1040
1.0
1070
    74
1070
     0
1000
MTEXTEND
  0
MTEXT
  5
51F
102
{ACAD_XDICTIONARY
360
520
102
}
330
1F
100
AcDbEntity
  8
dim @ 1
  6
ByBlock
 62
     3
100
AcDbMText
 10
-14526.26514663121
 20
-5583.622179165136
 30
0.0
 40
1.5
 41
2.916429696650084
 71
     9
 72
     1
  1

 73
     1
 44
1.0
1001
AcadAnnotative
1000
AnnotativeData
1002
{
1070
     1
1070
     0
1002
}
1001
ACAD
1000
MTEXTBEGIN
1070
    73
1070
     1
1070
    44
1040
1.0
1070
    74
1070
     0
1000
MTEXTEND
  0
MTEXT
  5
524
102
{ACAD_XDICTIONARY
360
525
102
}
330
1F
100
AcDbEntity
  8
dim @ 1
  6
ByBlock
 62
     3
100
AcDbMText
 10
-14524.24308428311
 20
-5587.033173159353
 30
0.0
 40
1.5
 41
2.916429696650084
 71
     9
 72
     1
  1

 73
     1
 44
1.0
1001
AcadAnnotative
1000
AnnotativeData
1002
{
1070
     1
1070
     0
1002
}
1001
ACAD
1000
MTEXTBEGIN
1070
    73
1070
     1
1070
    44
1040
1.0
1070
    74
1070
     0
1000
MTEXTEND
  0
MTEXT
  5
529
102
{ACAD_XDICTIONARY
360
52A
102
}
330
1F
100
AcDbEntity
  8
dim @ 1
  6
ByBlock
 62
     3
100
AcDbMText
 10
-14507.28970307043
 20
-5583.709219957312
 30
0.0
 40
1.5
 41
2.916429696650084
 71
     9
 72
     1
  1

 73
     1
 44
1.0
1001
AcadAnnotative
1000
AnnotativeData
1002
{
1070
     1
1070
     0
1002
}
1001
ACAD
1000
MTEXTBEGIN
1070
    73
1070
     1
1070
    44
1040
1.0
1070
    74
1070
     0
1000
MTEXTEND
  0
MTEXT
  5
52E
102
{ACAD_XDICTIONARY
360
52F
102
}
330
1F
100
AcDbEntity
  8
dim @ 1
  6
ByBlock
 62
     3
100
AcDbMText
 10
-14471.57214572782
 20
-4590.81078250213
 30
0.0
 40
1.5
 41
2.916429696650084
 71
     1
 72
     1
  1

 73
     1
 44
1.0
1001
AcadAnnotative
1000
AnnotativeData
1002
{
1070
     1
1070
     0
1002
}
1001
ACAD
1000
MTEXTBEGIN
1070
    73
1070
     1
1070
    44
1040
1.0
1070
    74
1070
     0
1000
MTEXTEND
  0
MTEXT
  5
533
330
1F
100
AcDbEntity
  8
dim
  6
ByBlock
 62
     3
100
AcDbMText
 10
-14419.21154758969
 20
-4549.117496189153
 30
0.0
 40
2.0
 41
2.916429696650084
 71
     1
 72
     1
  1

 73
     1
 44
1.0
1001
ACAD
1000
MTEXTBEGIN
1070
    73
1070
     1
1070
    44
1040
1.0
1070
    74
1070
     0
1000
MTEXTEND
  0
MTEXT
  5
534
330
1F
100
AcDbEntity
  8
dim
  6
ByBlock
 62
     3
100
AcDbMText
 10
-14419.21154758969
 20
-4549.117496189153
 30
0.0
 40
2.0
 41
2.916429696650084
 71
     1
 72
     1
  1

 73
     1
 44
1.0
1001
ACAD
1000
MTEXTBEGIN
1070
    73
1070
     1
1070
    44
1040
1.0
1070
    74
1070
     0
1000
MTEXTEND
  0
MTEXT
  5
535
330
1F
100
AcDbEntity
  8
dim
  6
ByBlock
 62
     3
100
AcDbMText
 10
-14579.40711953448
 20
-4577.074784357744
 30
0.0
 40
1.5
 41
2.916429696650084
 71
     9
 72
     1
  1

 73
     1
 44
1.0
1001
ACAD
1000
MTEXTBEGIN
1070
    73
1070
     1
1070
    44
1040
1.0
1070
    74
1070
     0
1000
MTEXTEND
  0
MTEXT
  5
536
330
1F
100
AcDbEntity
  8
dim
  6
ByBlock
 62
     3
100
AcDbMText
 10
-14493.48306246561
 20
-4620.139442155447
 30
0.0
 40
2.5
 41
2.916429696650084
 71
     9
 72
     1
  1

 73
     1
 44
1.0
1001
ACAD
1000
MTEXTBEGIN
1070
    73
1070
     1
1070
    44
1040
1.0
1070
    74
1070
     0
1000
MTEXTEND
  0
MTEXT
  5
537
330
1F
100
AcDbEntity
  8
dim
  6
ByBlock
 62
     3
100
AcDbMText
 10
-14753.46852888017
 20
-4093.319546690008
 30
0.0
 40
1.5
 41
2.916429696650084
 71
     1
 72
     1
  1

 73
     1
 44
1.0
1001
ACAD
1000
MTEXTBEGIN
1070
    73
1070
     1
1070
    44
1040
1.0
1070
    74
1070
     0
1000
MTEXTEND
  0
MTEXT
  5
538
102
{ACAD_XDICTIONARY
360
539
102
}
330
1F
100
AcDbEntity
  8
dim @ 1
  6
ByBlock
 62
     3
100
AcDbMText
 10
-14638.7725149263
 20
-4113.755022080703
 30
0.0
 40
1.5
 41
2.916429696650084
 71
     1
 72
     1
  1

 73
     1
 44
1.0
1001
AcadAnnotative
1000
AnnotativeData
1002
{
1070
     1
1070
     0
1002
}
1001
ACAD
1000
MTEXTBEGIN
1070
    73
1070
     1
1070
    44
1040
1.0
1070
    74
1070
     0
1000
MTEXTEND
  0
MTEXT
  5
53D
102
{ACAD_XDICTIONARY
360
53E
102
}
330
1F
100
AcDbEntity
  8
dim @ 1
  6
ByBlock
 62
     3
100
AcDbMText
 10
-13532.81239247941
 20
-4181.746588931633
 30
0.0
 40
5.0
 41
2.916429696650084
 71
     1
 72
     1
  1

 73
     1
 44
1.0
1001
AcadAnnotative
1000
AnnotativeData
1002
{
1070
     1
1070
     0
1002
}
1001
ACAD
1000
MTEXTBEGIN
1070
    73
1070
     1
1070
    44
1040
1.0
1070
    74
1070
     0
1000
MTEXTEND
  0
MTEXT
  5
542
102
{ACAD_XDICTIONARY
360
543
102
}
330
1F
100
AcDbEntity
  8
dim @ 1
  6
ByBlock
 62
     3
100
AcDbMText
 10
-14405.51663120291
 20
-4243.716092423513
 30
0.0
 40
2.5
 41
2.916429696650084
 71
     1
 72
     1
  1

 73
     1
 44
1.0
1001
AcadAnnotative
1000
AnnotativeData
1002
{
1070
     1
1070
     0
1002
}
1001
ACAD
1000
MTEXTBEGIN
1070
    73
1070
     1
1070
    44
1040
1.0
1070
    74
1070
     0
1000
MTEXTEND
  0
MTEXT
  5
547
330
1F
100
AcDbEntity
  8
dim
  6
ByBlock
 62
     3
100
AcDbMText
 10
-17324.7250065518
 20
-4302.45539082525
 30
0.0
 40
2.5
 41
2.916429696650084
 71
     9
 72
     1
  1

 73
     1
 44
1.0
1001
ACAD
1000
MTEXTBEGIN
1070
    73
1070
     1
1070
    44
1040
1.0
1070
    74
1070
     0
1000
MTEXTEND
  0
MTEXT
  5
548
330
1F
100
AcDbEntity
  8
dim
  6
ByBlock
 62
     3
100
AcDbMText
 10
-17250.47486393059
 20
-4132.186135519217
 30
0.0
 40
2.5
 41
2.916429696650084
 71
     1
 72
     1
  1

 73
     1
 44
1.0
1001
ACAD
1000
MTEXTBEGIN
1070
    73
1070
     1
1070
    44
1040
1.0
1070
    74
1070
     0
1000
MTEXTEND
  0
MTEXT
  5
549
330
1F
100
AcDbEntity
  8
dim
  6
ByBlock
 62
     3
100
AcDbMText
 10
-17339.14318421642
 20
-4186.814048641955
 30
0.0
 40
2.5
 41
2.916429696650084
 71
     9
 72
     1
  1

 73
     1
 44
1.0
1001
ACAD
1000
MTEXTBEGIN
1070
    73
1070
     1
1070
    44
1040
1.0
1070
    74
1070
     0
1000
MTEXTEND
  0
MTEXT
  5
54A
102
{ACAD_XDICTIONARY
360
54B
102
}
330
1F
100
AcDbEntity
  8
dim @ 1
  6
ByBlock
 62
     3
100
AcDbMText
 10
-17281.81212016049
 20
-4126.917805960839
 30
0.0
 40
2.5
 41
2.916429696650084
 71
     9
 72
     1
  1

 73
     1
 44
1.0
1001
AcadAnnotative
1000
AnnotativeData
1002
{
1070
     1
1070
     0
1002
}
1001
ACAD
1000
MTEXTBEGIN
1070
    73
1070
     1
1070
    44
1040
1.0
1070
    74
1070
     0
1000
MTEXTEND
  0
MTEXT
  5
54F
102
{ACAD_XDICTIONARY
360
550
102
}
330
1F
100
AcDbEntity
  8
dim @ 1
  6
ByBlock
 62
     3
100
AcDbMText
 10
-16759.97392704125
 20
-4631.115022845781
 30
0.0
 40
2.5
 41
2.916429696650084
 71
     1
 72
     1
  1

 73
     1
 44
1.0
1001
AcadAnnotative
1000
AnnotativeData
1002
{
1070
     1
1070
     0
1002
}
1001
ACAD
1000
MTEXTBEGIN
1070
    73
1070
     1
1070
    44
1040
1.0
1070
    74
1070
     0
1000
MTEXTEND
  0
MTEXT
  5
554
102
{ACAD_XDICTIONARY
360
555
102
}
330
1F
100
AcDbEntity
  8
dim @ 1
  6
ByBlock
 62
     3
100
AcDbMText
 10
-16552.77535912861
 20
-4538.302590453771
 30
0.0
 40
2.5
 41
2.916429696650084
 71
     1
 72
     1
  1

 73
     1
 44
1.0
1001
AcadAnnotative
1000
AnnotativeData
1002
{
1070
     1
1070
     0
1002
}
1001
ACAD
1000
MTEXTBEGIN
1070
    73
1070
     1
1070
    44
1040
1.0
1070
    74
1070
     0
1000
MTEXTEND
  0
MTEXT
  5
559
102
{ACAD_XDICTIONARY
360
55A
102
}
330
1F
100
AcDbEntity
  8
dim @ 1
  6
ByBlock
 62
     3
100
AcDbMText
 10
-14097.59563522049
 20
-5411.229359429349
 30
0.0
 40
4.0
 41
2.916429696650084
 71
     9
 72
     1
  1

 73
     1
 44
1.0
1001
AcadAnnotative
1000
AnnotativeData
1002
{
1070
     1
1070
     0
1002
}
1001
ACAD
1000
MTEXTBEGIN
1070
    73
1070
     1
1070
    44
1040
1.0
1070
    74
1070
     0
1000
MTEXTEND
  0
MTEXT
  5
55E
102
{ACAD_XDICTIONARY
360
55F
102
}
330
1F
100
AcDbEntity
  8
dim @ 1
  6
ByBlock
 62
     3
100
AcDbMText
 10
-14039.46767042542
 20
-5424.922795531106
 30
0.0
 40
4.0
 41
2.916429696650084
 71
     1
 72
     1
  1

 73
     1
 44
1.0
1001
AcadAnnotative
1000
AnnotativeData
1002
{
1070
     1
1070
     0
1002
}
1001
ACAD
1000
MTEXTBEGIN
1070
    73
1070
     1
1070
    44
1040
1.0
1070
    74
1070
     0
1000
MTEXTEND
  0
MTEXT
  5
563
330
1F
100
AcDbEntity
  8
dim
  6
ByBlock
 62
     3
100
AcDbMText
 10
-14029.50707385749
 20
-5397.020689370775
 30
0.0
 40
5.0
 41
2.916429696650084
 71
     1
 72
     1
  1

 73
     1
 44
1.0
1001
ACAD
1000
MTEXTBEGIN
1070
    73
1070
     1
1070
    44
1040
1.0
1070
    74
1070
     0
1000
MTEXTEND
  0
MTEXT
  5
564
330
1F
100
AcDbEntity
  8
dim
  6
ByBlock
 62
     3
100
AcDbMText
 10
-14012.23632622305
 20
-5448.978256310631
 30
0.0
 40
2.5
 41
2.916429696650084
 71
     1
 72
     1
  1

 73
     1
 44
1.0
1001
ACAD
1000
MTEXTBEGIN
1070
    73
1070
     1
1070
    44
1040
1.0
1070
    74
1070
     0
1000
MTEXTEND
  0
MTEXT
  5
565
330
1F
100
AcDbEntity
  8
dim
  6
ByBlock
 62
     3
100
AcDbMText
 10
-14144.20742433652
 20
-5452.002385573776
 30
0.0
 40
2.5
 41
2.916429696650084
 71
     9
 72
     1
  1

 73
     1
 44
1.0
1001
ACAD
1000
MTEXTBEGIN
1070
    73
1070
     1
1070
    44
1040
1.0
1070
    74
1070
     0
1000
MTEXTEND
  0
MTEXT
  5
566
330
1F
100
AcDbEntity
  8
dim
  6
ByBlock
 62
     3
100
AcDbMText
 10
-14107.37796912214
 20
-5374.844049371859
 30
0.0
 40
2.5
 41
2.916429696650084
 71
     1
 72
     1
  1

 73
     1
 44
1.0
1001
ACAD
1000
MTEXTBEGIN
1070
    73
1070
     1
1070
    44
1040
1.0
1070
    74
1070
     0
1000
MTEXTEND
  0
MTEXT
  5
567
330
1F
100
AcDbEntity
  8
dim
  6
ByBlock
 62
     3
100
AcDbMText
 10
-14154.97746142128
 20
-5436.415811974377
 30
0.0
 40
2.5
 41
2.916429696650084
 71
     9
 72
     1
  1

 73
     1
 44
1.0
1001
ACAD
1000
MTEXTBEGIN
1070
    73
1070
     1
1070
    44
1040
1.0
1070
    74
1070
     0
1000
MTEXTEND
  0
MTEXT
  5
568
102
{ACAD_XDICTIONARY
360
569
102
}
330
1F
100
AcDbEntity
  8
dim @ 1
  6
ByBlock
 62
     3
100
AcDbMText
 10
-13138.42877563592
 20
-4513.159521655714
 30
0.0
 40
4.0
 41
2.916429696650084
 71
     9
 72
     1
  1

 73
     1
 44
1.0
1001
AcadAnnotative
1000
AnnotativeData
1002
{
1070
     1
1070
     0
1002
}
1001
ACAD
1000
MTEXTBEGIN
1070
    73
1070
     1
1070
    44
1040
1.0
1070
    74
1070
     0
1000
MTEXTEND
  0
MTEXT
  5
56D
102
{ACAD_XDICTIONARY
360
56E
102
}
330
1F
100
AcDbEntity
  8
dim @ 1
  6
ByBlock
 62
     3
100
AcDbMText
 10
-13097.08208126032
 20
-4470.000346954478
 30
0.0
 40
4.0
 41
2.916429696650084
 71
     9
 72
     1
  1

 73
     1
 44
1.0
1001
AcadAnnotative
1000
AnnotativeData
1002
{
1070
     1
1070
     0
1002
}
1001
ACAD
1000
MTEXTBEGIN
1070
    73
1070
     1
1070
    44
1040
1.0
1070
    74
1070
     0
1000
MTEXTEND
  0
MTEXT
  5
572
102
{ACAD_XDICTIONARY
360
573
102
}
330
1F
100
AcDbEntity
  8
dim @ 1
  6
ByBlock
 62
     3
100
AcDbMText
 10
-13004.1093185282
 20
-4652.089265451478
 30
0.0
 40
4.0
 41
2.916429696650084
 71
     1
 72
     1
  1

 73
     1
 44
1.0
1001
AcadAnnotative
1000
AnnotativeData
1002
{
1070
     1
1070
     0
1002
}
1001
ACAD
1000
MTEXTBEGIN
1070
    73
1070
     1
1070
    44
1040
1.0
1070
    74
1070
     0
1000
MTEXTEND
  0
MTEXT
  5
577
102
{ACAD_XDICTIONARY
360
578
102
}
330
1F
100
AcDbEntity
  8
dim @ 1
  6
ByBlock
 62
     3
100
AcDbMText
 10
-11975.34491276279
 20
-4486.089894770207
 30
0.0
 40
5.0
 41
2.916429696650084
 71
     9
 72
     1
  1

 73
     1
 44
1.0
1001
AcadAnnotative
1000
AnnotativeData
1002
{
1070
     1
1070
     0
1002
}
1001
ACAD
1000
MTEXTBEGIN
1070
    73
1070
     1
1070
    44
1040
1.0
1070
    74
1070
     0
1000
MTEXTEND
  0
MTEXT
  5
57C
102
{ACAD_XDICTIONARY
360
57D
102
}
330
1F
100
AcDbEntity
  8
dim @ 1
  6
ByBlock
 62
     3
100
AcDbMText
 10
-11969.21175038912
 20
-4500.155791752201
 30
0.0
 40
5.0
 41
2.916429696650084
 71
     9
 72
     1
  1

 73
     1
 44
1.0
1001
AcadAnnotative
1000
AnnotativeData
1002
{
1070
     1
1070
     0
1002
}
1001
ACAD
1000
MTEXTBEGIN
1070
    73
1070
     1
1070
    44
1040
1.0
1070
    74
1070
     0
1000
MTEXTEND
  0
MTEXT
  5
581
102
{ACAD_XDICTIONARY
360
582
102
}
330
1F
100
AcDbEntity
  8
dim @ 1
  6
ByBlock
 62
     3
100
AcDbMText
 10
-11892.03975379173
 20
-4453.619148520036
 30
0.0
 40
5.0
 41
2.916429696650084
 71
     1
 72
     1
  1

 73
     1
 44
1.0
1001
AcadAnnotative
1000
AnnotativeData
1002
{
1070
     1
1070
     0
1002
}
1001
ACAD
1000
MTEXTBEGIN
1070
    73
1070
     1
1070
    44
1040
1.0
1070
    74
1070
     0
1000
MTEXTEND
  0
MTEXT
  5
586
102
{ACAD_XDICTIONARY
360
587
102
}
330
1F
100
AcDbEntity
  8
dim @ 1
  6
ByBlock
 62
     3
100
AcDbMText
 10
-8266.935118555499
 20
-4524.261144050969
 30
0.0
 40
5.0
 41
2.916429696650084
 71
     1
 72
     1
  1

 73
     1
 44
1.0
1001
AcadAnnotative
1000
AnnotativeData
1002
{
1070
     1
1070
     0
1002
}
1001
ACAD
1000
MTEXTBEGIN
1070
    73
1070
     1
1070
    44
1040
1.0
1070
    74
1070
     0
1000
MTEXTEND
  0
MTEXT
  5
58B
102
{ACAD_XDICTIONARY
360
58C
102
}
330
1F
100
AcDbEntity
  8
dim @ 1
  6
ByBlock
 62
     3
100
AcDbMText
 10
-8275.005079112984
 20
-4244.775039427092
 30
0.0
 40
5.0
 41
2.916429696650084
 71
     1
 72
     1
  1

 73
     1
 44
1.0
1001
AcadAnnotative
1000
AnnotativeData
1002
{
1070
     1
1070
     0
1002
}
1001
ACAD
1000
MTEXTBEGIN
1070
    73
1070
     1
1070
    44
1040
1.0
1070
    74
1070
     0
1000
MTEXTEND
  0
MTEXT
  5
590
102
{ACAD_XDICTIONARY
360
591
102
}
330
1F
100
AcDbEntity
  8
dim @ 1
  6
ByBlock
 62
     3
100
AcDbMText
 10
-8293.561829832237
 20
-4414.876770273878
 30
0.0
 40
5.0
 41
2.916429696650084
 71
     1
 72
     1
  1

 73
     1
 44
1.0
1001
AcadAnnotative
1000
AnnotativeData
1002
{
1070
     1
1070
     0
1002
}
1001
ACAD
1000
MTEXTBEGIN
1070
    73
1070
     1
1070
    44
1040
1.0
1070
    74
1070
     0
1000
MTEXTEND
  0
MTEXT
  5
595
102
{ACAD_XDICTIONARY
360
596
102
}
330
1F
100
AcDbEntity
  8
dim @ 1
  6
ByBlock
 62
     3
100
AcDbMText
 10
-7382.667226496646
 20
-4641.123057043828
 30
0.0
 40
5.0
 41
2.916429696650084
 71
     1
 72
     1
  1

 73
     1
 44
1.0
1001
AcadAnnotative
1000
AnnotativeData
1002
{
1070
     1
1070
     0
1002
}
1001
ACAD
1000
MTEXTBEGIN
1070
    73
1070
     1
1070
    44
1040
1.0
1070
    74
1070
     0
1000
MTEXTEND
  0
MTEXT
  5
59A
102
{ACAD_XDICTIONARY
360
59B
102
}
330
1F
100
AcDbEntity
  8
dim @ 1
  6
ByBlock
 62
     3
100
AcDbMText
 10
-7383.623216401247
 20
-4718.134504782588
 30
0.0
 40
5.0
 41
2.916429696650084
 71
     1
 72
     1
  1

 73
     1
 44
1.0
1001
AcadAnnotative
1000
AnnotativeData
1002
{
1070
     1
1070
     0
1002
}
1001
ACAD
1000
MTEXTBEGIN
1070
    73
1070
     1
1070
    44
1040
1.0
1070
    74
1070
     0
1000
MTEXTEND
  0
LINE
  5
59F
330
1F
100
AcDbEntity
  8
1.1L
  6
ByBlock
370
    40
100
AcDbLine
 10
417.5298735556792
 20
309.0897075339813
 30
0.0
 11
417.5298735556792
 21
303.9764588799285
 31
0.0
  0
LINE
  5
5A0
102
{ACAD_REACTORS
330
5EC
102
}
330
1F
100
AcDbEntity
  8
1.1L
  6
ByBlock
370
    40
100
AcDbLine
 10
418.0298735556791
 20
303.9764588799285
 30
0.0
 11
417.5298735556792
 21
303.9764588799294
 31
0.0
  0
LINE
  5
5A1
330
1F
100
AcDbEntity
  8
1.1L
  6
ByBlock
370
    40
100
AcDbLine
 10
389.9298735556806
 20
259.376458879929
 30
0.0
 11
389.9298735556806
 21
252.6764588799284
 31
0.0
  0
LINE
  5
5A2
330
1F
100
AcDbEntity
  8
1.1L
  6
ByBlock
370
    40
100
AcDbLine
 10
390.5298735556792
 20
309.0897075339813
 30
0.0
 11
390.5298735556792
 21
303.9764588799285
 31
0.0
  0
ARC
  5
5A3
330
1F
100
AcDbEntity
  8
1.1L
  6
ByBlock
370
    40
100
AcDbCircle
 10
391.0298735556791
 20
309.0897075339813
 30
0.0
 40
0.5
100
AcDbArc
 50
119.9999999999979
 51
180.0
  0
LINE
  5
5A4
330
1F
100
AcDbEntity
  8
1.1L
  6
ByBlock
370
    40
100
AcDbLine
 10
389.0298735556791
 20
302.9764588799285
 30
0.0
 11
389.0298735556791
 21
260.2764588799287
 31
0.0
  0
LINE
  5
5A5
330
1F
100
AcDbEntity
  8
1.1L
  6
ByBlock
370
    40
100
AcDbLine
 10
390.0298735556792
 20
303.9764588799294
 30
0.0
 11
389.0298735556791
 21
302.9764588799285
 31
0.0
  0
LINE
  5
5A6
330
1F
100
AcDbEntity
  8
1L
  6
ByBlock
370
    -3
100
AcDbLine
 10
389.5298735556792
 20
303.4764588799294
 30
0.0
 11
389.5298735556792
 21
259.7764588799287
 31
0.0
  0
LINE
  5
5A7
330
1F
100
AcDbEntity
  8
1.1L
  6
ByBlock
370
    40
100
AcDbLine
 10
395.0298735556792
 20
311.9764588799285
 30
0.0
 11
410.0298735556791
 21
311.9764588799285
 31
0.0
  0
LINE
  5
5A8
330
1F
100
AcDbEntity
  8
1.1L
  6
ByBlock
370
    40
100
AcDbLine
 10
390.0298735556792
 20
303.9764588799294
 30
0.0
 11
417.5298735556792
 21
303.9764588799294
 31
0.0
  0
LINE
  5
5A9
330
1F
100
AcDbEntity
  8
1.1L
  6
ByBlock
370
    40
100
AcDbLine
 10
395.0298735556792
 20
311.9764588799285
 30
0.0
 11
390.7798735556792
 21
309.5227202358733
 31
0.0
  0
LINE
  5
5AA
330
1F
100
AcDbEntity
  8
1.1L
  6
ByBlock
370
    40
100
AcDbLine
 10
389.0298735556791
 20
260.2764588799287
 30
0.0
 11
389.9298735556806
 21
259.3764588799281
 31
0.0
  0
LINE
  5
5AB
330
1F
100
AcDbEntity
  8
1.1L
  6
ByBlock
370
    40
100
AcDbLine
 10
418.1298735556777
 20
259.3764588799281
 30
0.0
 11
418.1298735556777
 21
252.6764588799284
 31
0.0
  0
ARC
  5
5AC
330
1F
100
AcDbEntity
  8
1.1L
  6
ByBlock
370
    40
100
AcDbCircle
 10
417.0298735556791
 20
309.0897075339813
 30
0.0
 40
0.5
100
AcDbArc
 50
0.0
 51
60.00000000000209
  0
LINE
  5
5AD
330
1F
100
AcDbEntity
  8
1.1L
  6
ByBlock
370
    40
100
AcDbLine
 10
419.029873555679
 20
302.9764588799277
 30
0.0
 11
419.029873555679
 21
260.2764588799278
 31
0.0
  0
LINE
  5
5AE
330
1F
100
AcDbEntity
  8
1L
  6
ByBlock
370
    -3
100
AcDbLine
 10
418.529873555679
 20
303.4764588799285
 30
0.0
 11
418.529873555679
 21
259.7764588799277
 31
0.0
  0
LINE
  5
5AF
102
{ACAD_REACTORS
330
5F2
102
}
330
1F
100
AcDbEntity
  8
1.1L
  6
ByBlock
370
    40
100
AcDbLine
 10
413.0298735556791
 20
311.9764588799285
 30
0.0
 11
410.0298735556791
 21
311.9764588799285
 31
0.0
  0
LINE
  5
5B0
330
1F
100
AcDbEntity
  8
1.1L
  6
ByBlock
370
    40
100
AcDbLine
 10
419.029873555679
 20
302.9764588799277
 30
0.0
 11
418.0298735556791
 21
303.9764588799285
 31
0.0
  0
LINE
  5
5B1
330
1F
100
AcDbEntity
  8
1.1L
  6
ByBlock
370
    40
100
AcDbLine
 10
413.0298735556791
 20
311.9764588799285
 30
0.0
 11
417.279873555679
 21
309.5227202358733
 31
0.0
  0
LINE
  5
5B2
330
1F
100
AcDbEntity
  8
1.1L
  6
ByBlock
370
    40
100
AcDbLine
 10
419.029873555679
 20
260.2764588799278
 30
0.0
 11
418.1298735556777
 21
259.3764588799281
 31
0.0
  0
LINE
  5
5B3
330
1F
100
AcDbEntity
  8
1.1L
  6
ByBlock
370
    40
100
AcDbLine
 10
398.2798735556792
 20
326.4814588799231
 30
0.0
 11
398.2798735556792
 21
321.2314588799231
 31
0.0
  0
LINE
  5
5B4
330
1F
100
AcDbEntity
  8
1.1L
  6
ByBlock
370
    40
100
AcDbLine
 10
398.2798735556792
 20
321.2314588799249
 30
0.0
 11
398.0298735556792
 21
320.9814588799231
 31
0.0
  0
LINE
  5
5B5
330
1F
100
AcDbEntity
  8
1.1L
  6
ByBlock
370
    40
100
AcDbLine
 10
409.7798735556791
 20
321.2314588799249
 30
0.0
 11
410.0298735556791
 21
320.9814588799231
 31
0.0
  0
LINE
  5
5B6
102
{ACAD_REACTORS
330
5F8
102
}
330
1F
100
AcDbEntity
  8
1.1L
  6
ByBlock
370
    40
100
AcDbLine
 10
398.7798735556792
 20
326.9814588799231
 30
0.0
 11
409.279873555679
 21
326.9814588799231
 31
0.0
  0
ARC
  5
5B7
330
1F
100
AcDbEntity
  8
1.1L
  6
ByBlock
370
    40
100
AcDbCircle
 10
398.7798735556792
 20
326.4814588799231
 30
0.0
 40
0.5
100
AcDbArc
 50
90.0
 51
180.0
  0
LINE
  5
5B8
330
1F
100
AcDbEntity
  8
1.1L
  6
ByBlock
370
    40
100
AcDbLine
 10
409.7798735556791
 20
326.4814588799231
 30
0.0
 11
409.7798735556791
 21
321.2314588799231
 31
0.0
  0
ARC
  5
5B9
330
1F
100
AcDbEntity
  8
1.1L
  6
ByBlock
370
    40
100
AcDbCircle
 10
409.279873555679
 20
326.4814588799231
 30
0.0
 40
0.5
100
AcDbArc
 50
0.0
 51
90.0
  0
LINE
  5
5BA
330
1F
100
AcDbEntity
  8
1.1L
  6
ByBlock
370
    40
100
AcDbLine
 10
398.2798735556792
 20
330.6497334623978
 30
0.0
 11
398.2798735556792
 21
326.9814588799231
 31
0.0
  0
LINE
  5
5BB
330
1F
100
AcDbEntity
  8
1.1L
  6
ByBlock
370
    40
100
AcDbLine
 10
398.2798735556792
 20
326.9814588799231
 30
0.0
 11
407.4298735556806
 21
326.9814588799231
 31
0.0
  0
LINE
  5
5BC
330
1F
100
AcDbEntity
  8
1.1L
  6
ByBlock
370
    40
100
AcDbLine
 10
409.7798735556791
 20
330.6497334623978
 30
0.0
 11
409.7798735556791
 21
326.9814588799231
 31
0.0
  0
LINE
  5
5BD
330
1F
100
AcDbEntity
  8
1.1L
  6
ByBlock
370
    40
100
AcDbLine
 10
409.7798735556791
 20
326.9814588799231
 30
0.0
 11
407.4298735556806
 21
326.9814588799231
 31
0.0
  0
ARC
  5
5BE
330
1F
100
AcDbEntity
  8
1.1L
  6
ByBlock
370
    40
100
AcDbCircle
 10
404.0298735556791
 20
280.9814588799231
 30
0.0
 40
50.0
100
AcDbArc
 50
83.39637495138523
 51
96.60362504861478
  0
LINE
  5
5BF
330
1F
100
AcDbEntity
  8
1.1L
  6
ByBlock
370
    40
100
AcDbLine
 10
401.1904193827796
 20
326.9814588799231
 30
0.0
 11
401.1904193827796
 21
330.6497334623969
 31
0.0
  0
LINE
  5
5C0
330
1F
100
AcDbEntity
  8
1.1L
  6
ByBlock
370
    40
100
AcDbLine
 10
406.8693277285786
 20
326.9814588799231
 30
0.0
 11
406.8693277285786
 21
330.6497334623969
 31
0.0
  0
LINE
  5
5C1
330
1F
100
AcDbEntity
  8
1L
  6
ByBlock
370
    40
100
AcDbLine
 10
401.1904193827796
 20
330.6497334623978
 30
0.0
 11
406.8693277285786
 21
326.9814588799231
 31
0.0
  0
LINE
  5
5C2
330
1F
100
AcDbEntity
  8
1L
  6
ByBlock
370
    40
100
AcDbLine
 10
401.1904193827796
 20
326.9814588799231
 30
0.0
 11
406.8693277285786
 21
330.6497334623978
 31
0.0
  0
LINE
  5
5C3
330
1F
100
AcDbEntity
  8
1.1L
  6
ByBlock
370
    40
100
AcDbLine
 10
398.2798735556792
 20
330.6497334623978
 30
0.0
 11
409.7798735556791
 21
330.6497334623978
 31
0.0
  0
LINE
  5
5C4
102
{ACAD_REACTORS
330
5D5
102
}
330
1F
100
AcDbEntity
  8
1L
  6
ByBlock
370
    40
100
AcDbLine
 10
398.0298735556829
 20
311.9764588799285
 30
0.0
 11
398.02987355565
 21
320.981458879894
 31
0.0
  0
LINE
  5
5C5
330
1F
100
AcDbEntity
  8
1L
  6
ByBlock
370
    40
100
AcDbLine
 10
410.0298735556791
 20
311.9764588799285
 30
0.0
 11
410.0298735562976
 21
320.9814588793038
 31
0.0
  0
LINE
  5
5C6
102
{ACAD_REACTORS
330
5E6
102
}
330
1F
100
AcDbEntity
  8
1L
  6
ByBlock
370
    40
100
AcDbLine
 10
389.9298735556806
 20
259.3764588799281
 30
0.0
 11
418.1298735556777
 21
259.3764588799281
 31
0.0
  0
LINE
  5
5C7
102
{ACAD_REACTORS
330
5D5
102
}
330
1F
100
AcDbEntity
  8
1L
  6
ByBlock
370
    40
100
AcDbLine
 10
398.0298735557483
 20
320.9814588799313
 30
0.0
 11
410.0298735557482
 21
320.981458879854
 31
0.0
  0
LINE
  5
5C8
330
1F
100
AcDbEntity
  8
1L
  6
ByBlock
370
    40
100
AcDbLine
 10
398.2798735556792
 20
321.2314588799249
 30
0.0
 11
409.7798735556791
 21
321.2314588799249
 31
0.0
  0
LINE
  5
5C9
330
1F
100
AcDbEntity
  8
1.1L
  6
CENTER
 62
     1
 48
0.1
370
    -3
100
AcDbLine
 10
404.0298735556791
 20
331.3351753747643
 30
0.0
 11
404.0298735556791
 21
249.6011986198814
 31
0.0
  0
LINE
  5
5CA
330
1F
100
AcDbEntity
  8
1.1L
  6
ByBlock
370
    40
100
AcDbLine
 10
411.4140612717058
 20
308.807112675388
 30
0.0
 11
411.4140612717058
 21
303.9764588799294
 31
0.0
  0
LINE
  5
5CB
330
1F
100
AcDbEntity
  8
1.1L
  6
ByBlock
370
    40
100
AcDbLine
 10
410.4411534313404
 20
308.8113545728015
 30
0.0
 11
410.4411534313404
 21
303.9764588799294
 31
0.0
  0
ARC
  5
5CC
330
1F
100
AcDbEntity
  8
0
370
    40
100
AcDbCircle
 10
392.83504484022
 20
292.6572824978025
 30
0.0
 40
16.59332417632844
100
AcDbArc
 50
76.72347694980036
 51
97.98544919156896
  0
ARC
  5
5CD
330
1F
100
AcDbEntity
  8
0
370
    40
100
AcDbCircle
 10
404.0295771014171
 20
284.6475037007754
 30
0.0
 40
25.0
100
AcDbArc
 50
75.13970476850935
 51
104.8597831116905
  0
ARC
  5
5CE
330
1F
100
AcDbEntity
  8
0
370
    40
100
AcDbCircle
 10
415.2246917021076
 20
292.6582324543974
 30
0.0
 40
16.59238489997805
100
AcDbArc
 50
82.01405895722862
 51
103.2771380775747
  0
LINE
  5
5CF
330
1F
100
AcDbEntity
  8
1.1L
  6
ByBlock
370
    40
100
AcDbLine
 10
396.6456858396524
 20
308.807112675388
 30
0.0
 11
396.6456858396524
 21
303.9764588799294
 31
0.0
  0
ARC
  5
5D0
330
1F
100
AcDbEntity
  8
0
  6
ByBlock
370
    40
100
AcDbCircle
 10
410.9140603829294
 20
305.7021448215686
 30
0.0
 40
3.144968403978528
100
AcDbArc
 50
80.85204838665761
 51
98.64833331690704
  0
ARC
  5
5D1
330
1F
100
AcDbEntity
  8
0
  6
ByBlock
370
    40
100
AcDbCircle
 10
397.1456867284289
 20
305.7021448215686
 30
0.0
 40
3.144968403978528
100
AcDbArc
 50
81.35166668330223
 51
99.14795161323851
  0
LINE
  5
5D2
330
1F
100
AcDbEntity
  8
1.1L
  6
ByBlock
370
    40
100
AcDbLine
 10
397.6185936800177
 20
308.8113545728015
 30
0.0
 11
397.6185936800177
 21
303.9764588799294
 31
0.0
  0
DIMENSION
  5
5D3
102
{ACAD_XDICTIONARY
360
5D4
102
}
102
{ACAD_REACTORS
330
5D5
102
}
330
1F
100
AcDbEntity
  8
dim @ 1
  6
ByBlock
100
AcDbDimension
  2
*D18
 10
410.0298735556791
 20
336.9322136860978
 30
0.0
 11
404.0298735556718
 21
336.9322136860978
 31
0.0
 70
   128
  1
{\fISOCPEUR|b0|i0|c0|p34;%%C}<>
 71
     5
 42
12.0000000000291
  3
副本 ISO-25
100
AcDbAlignedDimension
 13
398.02987355565
 23
320.9814588799313
 33
0.0
 14
410.0298735556791
 24
320.9814588799231
 34
0.0
100
AcDbRotatedDimension
1001
AcadAnnotative
1000
AnnotativeData
1002
{
1070
     1
1070
     0
1002
}
1001
ACAD
1000
DSTYLE
1002
{
1070
    40
1040
1.0
1070
   279
1070
     0
1070
   289
1070
     3
1070
   174
1070
     0
1070
   175
1070
     0
1070
   172
1070
     1
1070
    41
1040
2.0
1070
    42
1040
0.4997500000000001
1070
    44
1040
0.4997500000000001
1070
   140
1040
2.5
1070
   144
1040
1.0
1070
   147
1040
0.4997500000000001
1002
}
  0
DIMENSION
  5
5D9
102
{ACAD_XDICTIONARY
360
5DA
102
}
330
1F
100
AcDbEntity
  8
dim @ 1
  6
ByBlock
100
AcDbDimension
  2
*D19
 10
445.8327742299228
 20
249.9814588799258
 30
0.0
 11
445.8327742299227
 21
290.4564743025039
 31
0.0
 70
   128
 71
     5
 42
80.99999999999733
  3
副本 ISO-25
100
AcDbAlignedDimension
 13
404.0298735556791
 23
330.9814588799231
 33
0.0
 14
414.2198735556815
 24
249.9814588799258
 34
0.0
 50
90.0
100
AcDbRotatedDimension
1001
AcadAnnotative
1000
AnnotativeData
1002
{
1070
     1
1070
     0
1002
}
1001
ACAD
1000
DSTYLE
1002
{
1070
    40
1040
1.0
1070
   279
1070
     0
1070
   289
1070
     3
1070
   174
1070
     0
1070
   175
1070
     0
1070
   172
1070
     1
1070
    41
1040
2.0
1070
    42
1040
0.4997500000000001
1070
    44
1040
0.4997500000000001
1070
   140
1040
2.5
1070
   144
1040
1.0
1070
   147
1040
0.4997500000000001
1070
   178
1070
     3
1002
}
  0
ARC
  5
5DE
330
1F
100
AcDbEntity
  8
1.1L
  6
ByBlock
370
    40
100
AcDbCircle
 10
401.6904193827796
 20
326.4814588799386
 30
0.0
 40
0.5
100
AcDbArc
 50
90.0
 51
180.0
  0
LINE
  5
5DF
330
1F
100
AcDbEntity
  8
1.1L
 48
0.0480000000000037
370
    40
100
AcDbLine
 10
406.8693277285276
 20
321.2814588799497
 30
0.0
 11
406.8693277285276
 21
326.5314588799423
 31
0.0
  0
ARC
  5
5E0
330
1F
100
AcDbEntity
  8
1.1L
  6
ByBlock
 48
0.0480000000000037
370
    40
100
AcDbCircle
 10
406.3693277285276
 20
326.4814588799422
 30
0.0
 40
0.5
100
AcDbArc
 50
0.0
 51
90.0
  0
LINE
  5
5E1
330
1F
100
AcDbEntity
  8
1.1L
 48
0.0480000000000037
370
    40
100
AcDbLine
 10
401.1904193827796
 20
321.2814588799452
 30
0.0
 11
401.1904193827796
 21
326.5314588799388
 31
0.0
  0
LINE
  5
5E2
330
1F
100
AcDbEntity
  8
1.1L
  6
ByBlock
370
    40
100
AcDbLine
 10
409.7798735556791
 20
326.4814588799231
 30
0.0
 11
406.8693277285276
 21
326.4814588799231
 31
0.0
  0
LINE
  5
5E3
330
1F
100
AcDbEntity
  8
1.1L
  6
ByBlock
370
    40
100
AcDbLine
 10
401.1904193827796
 20
326.4814588799231
 30
0.0
 11
398.2798735556792
 21
326.4814588799231
 31
0.0
  0
DIMENSION
  5
5E4
102
{ACAD_XDICTIONARY
360
5E5
102
}
102
{ACAD_REACTORS
330
5E6
102
}
330
1F
100
AcDbEntity
  8
dim @ 1
  6
ByBlock
100
AcDbDimension
  2
*D20
 10
424.0039456467205
 20
259.3764588799281
 30
0.0
 11
424.0039456467203
 21
254.6789588799283
 31
0.0
 70
   128
 71
     5
 42
9.395000000002312
  3
副本 ISO-25
100
AcDbAlignedDimension
 13
414.2198735556815
 23
249.9814588799258
 33
0.0
 14
418.1298735556777
 24
259.3764588799281
 34
0.0
 50
90.0
100
AcDbRotatedDimension
1001
AcadAnnotative
1000
AnnotativeData
1002
{
1070
     1
1070
     0
1002
}
1001
ACAD
1000
DSTYLE
1002
{
1070
    40
1040
1.0
1070
   279
1070
     0
1070
   289
1070
     3
1070
   174
1070
     0
1070
   175
1070
     0
1070
   172
1070
     1
1070
    41
1040
2.0
1070
    42
1040
0.4997500000000001
1070
    44
1040
0.4997500000000001
1070
   140
1040
2.5
1070
   144
1040
1.0
1070
   147
1040
0.4997500000000001
1070
   178
1070
     3
1002
}
  0
DIMENSION
  5
5EA
102
{ACAD_XDICTIONARY
360
5EB
102
}
102
{ACAD_REACTORS
330
5EC
102
}
330
1F
100
AcDbEntity
  8
dim @ 1
  6
ByBlock
100
AcDbDimension
  2
*D11
 10
428.5509420937053
 20
303.9764588799285
 30
0.0
 11
428.5509420937053
 21
276.9539588799275
 31
0.0
 70
   128
 71
     5
 42
53.99500000000267
  3
副本 ISO-25
100
AcDbAlignedDimension
 13
414.2198735556815
 23
249.9814588799258
 33
0.0
 14
418.0298735556791
 24
303.9764588799285
 34
0.0
 50
90.0
100
AcDbRotatedDimension
1001
AcadAnnotative
1000
AnnotativeData
1002
{
1070
     1
1070
     0
1002
}
1001
ACAD
1000
DSTYLE
1002
{
1070
    40
1040
1.0
1070
   279
1070
     0
1070
   289
1070
     3
1070
   174
1070
     0
1070
   175
1070
     0
1070
   172
1070
     1
1070
    41
1040
2.0
1070
    42
1040
0.4997500000000001
1070
    44
1040
0.4997500000000001
1070
   140
1040
2.5
1070
   144
1040
1.0
1070
   147
1040
0.4997500000000001
1070
   178
1070
     3
1002
}
  0
DIMENSION
  5
5F0
102
{ACAD_XDICTIONARY
360
5F1
102
}
102
{ACAD_REACTORS
330
5F2
102
}
330
1F
100
AcDbEntity
  8
dim @ 1
  6
ByBlock
100
AcDbDimension
  2
*D12
 10
433.7196582693071
 20
249.9814588799258
 30
0.0
 11
433.719658269307
 21
280.9539588799276
 31
0.0
 70
   128
 71
     5
 42
61.99500000000266
  3
副本 ISO-25
100
AcDbAlignedDimension
 13
413.0298735556791
 23
311.9764588799285
 33
0.0
 14
414.2198735556815
 24
249.9814588799258
 34
0.0
 50
90.0
100
AcDbRotatedDimension
1001
AcadAnnotative
1000
AnnotativeData
1002
{
1070
     1
1070
     0
1002
}
1001
ACAD
1000
DSTYLE
1002
{
1070
    40
1040
1.0
1070
   279
1070
     0
1070
   289
1070
     3
1070
   174
1070
     0
1070
   175
1070
     0
1070
   172
1070
     1
1070
    41
1040
2.0
1070
    42
1040
0.4997500000000001
1070
    44
1040
0.4997500000000001
1070
   140
1040
2.5
1070
   144
1040
1.0
1070
   147
1040
0.4997500000000001
1070
   178
1070
     3
1002
}
  0
DIMENSION
  5
5F6
102
{ACAD_XDICTIONARY
360
5F7
102
}
102
{ACAD_REACTORS
330
5F8
102
}
330
1F
100
AcDbEntity
  8
dim @ 1
  6
ByBlock
100
AcDbDimension
  2
*D13
 10
440.0264490701123
 20
249.9814588799258
 30
0.0
 11
440.0264490701121
 21
288.4564751031571
 31
0.0
 70
   128
 71
     5
 42
76.99999999999731
  3
副本 ISO-25
100
AcDbAlignedDimension
 13
409.279873555679
 23
326.9814588799231
 33
0.0
 14
414.2198735556815
 24
249.9814588799258
 34
0.0
 50
90.0
100
AcDbRotatedDimension
1001
AcadAnnotative
1000
AnnotativeData
1002
{
1070
     1
1070
     0
1002
}
1001
ACAD
1000
DSTYLE
1002
{
1070
    40
1040
1.0
1070
   279
1070
     0
1070
   289
1070
     3
1070
   174
1070
     0
1070
   175
1070
     0
1070
   172
1070
     1
1070
    41
1040
2.0
1070
    42
1040
0.4997500000000001
1070
    44
1040
0.4997500000000001
1070
   140
1040
2.5
1070
   144
1040
1.0
1070
   147
1040
0.4997500000000001
1070
   178
1070
     3
1002
}
  0
DIMENSION
  5
5FC
102
{ACAD_XDICTIONARY
360
5FD
102
}
330
1F
100
AcDbEntity
  8
dim @ 1
  6
ByBlock
100
AcDbDimension
  2
*D21
 10
418.1298735556777
 20
241.2845904184992
 30
0.0
 11
404.0298735556791
 21
241.2845904184992
 31
0.0
 70
   160
  1
{\fISOCPEUR|b0|i0|c0|p34;%%C}<>
 71
     5
 42
28.19999999999709
  3
副本 ISO-25
100
AcDbAlignedDimension
 13
389.9298735556806
 23
251.3314588799271
 33
0.0
 14
418.1298735556777
 24
251.3314588799262
 34
0.0
100
AcDbRotatedDimension
1001
AcadAnnotative
1000
AnnotativeData
1002
{
1070
     1
1070
     0
1002
}
1001
ACAD
1000
DSTYLE
1002
{
1070
    40
1040
1.0
1070
   279
1070
     0
1070
   289
1070
     3
1070
   174
1070
     0
1070
   175
1070
     0
1070
   172
1070
     1
1070
   178
1070
     3
1070
   144
1040
1.0
1070
   140
1040
2.5
1070
    41
1040
2.0
1070
    42
1040
0.4997500000000001
1070
    44
1040
0.4997500000000001
1070
   147
1040
0.4997500000000001
1002
}
  0
LINE
  5
601
330
1F
100
AcDbEntity
  8
1L
  6
ByBlock
100
AcDbLine
 10
389.0298735556791
 20
302.9764588799285
 30
0.0
 11
419.029873555679
 21
302.9764588799277
 31
0.0
  0
LINE
  5
602
330
1F
100
AcDbEntity
  8
1L
  6
ByBlock
100
AcDbLine
 10
389.0298735556791
 20
260.2764588799287
 30
0.0
 11
419.029873555679
 21
260.2764588799287
 31
0.0
  0
LINE
  5
603
330
1F
100
AcDbEntity
  8
1L
  6
ByBlock
100
AcDbLine
 10
404.0298735556791
 20
323.0314588799233
 30
0.0
 11
404.0298735556791
 21
323.0314588799233
 31
0.0
  0
LINE
  5
604
330
1F
100
AcDbEntity
  8
中心线
370
    -3
100
AcDbLine
 10
404.0298735556791
 20
175.020879561946
 30
0.0
 11
404.0298735556791
 21
206.4020157304298
 31
0.0
  0
LINE
  5
605
330
1F
100
AcDbEntity
  8
中心线
370
    -3
100
AcDbLine
 10
388.2228998064313
 20
190.9305052338691
 30
0.0
 11
420.1530763404446
 21
190.9305052338709
 31
0.0
  0
CIRCLE
  5
606
330
1F
100
AcDbEntity
  8
1.1L
370
    40
100
AcDbCircle
 10
404.0298735556791
 20
190.93050523387
 30
0.0
 40
6.0
  0
ARC
  5
607
102
{ACAD_REACTORS
330
615
102
}
330
1F
100
AcDbEntity
  8
1.1L
  6
ByBlock
370
    40
100
AcDbCircle
 10
404.0298735556791
 20
190.93050523387
 30
0.0
 40
5.75
100
AcDbArc
 50
299.5918457939165
 51
60.4081542060835
  0
ARC
  5
608
330
1F
100
AcDbEntity
  8
1.1L
  6
ByBlock
370
    40
100
AcDbCircle
 10
404.0298735556791
 20
190.93050523387
 30
0.0
 40
5.75
100
AcDbArc
 50
119.5918457939165
 51
240.4081542060835
  0
LINE
  5
609
102
{ACAD_REACTORS
330
615
102
}
330
1F
100
AcDbEntity
  8
1.1L
 48
0.24
370
    40
100
AcDbLine
 10
401.1904193827796
 20
185.9305052338699
 30
0.0
 11
406.8693277285786
 21
185.9305052338699
 31
0.0
  0
LINE
  5
60A
330
1F
100
AcDbEntity
  8
1.1L
 48
0.24
370
    40
100
AcDbLine
 10
401.1904193827796
 20
195.93050523387
 30
0.0
 11
406.8693277285786
 21
195.93050523387
 31
0.0
  0
CIRCLE
  5
60B
330
1F
100
AcDbEntity
  8
1.1L
100
AcDbCircle
 10
404.0298735556791
 20
190.93050523387
 30
0.0
 40
7.0
  0
CIRCLE
  5
60C
330
1F
100
AcDbEntity
  8
1.1L
  6
ByBlock
100
AcDbCircle
 10
404.0298735556791
 20
190.9305052338709
 30
0.0
 40
15.0
  0
CIRCLE
  5
60D
330
1F
100
AcDbEntity
  8
1.1L
  6
ByBlock
100
AcDbCircle
 10
404.0298735556791
 20
190.9305052338709
 30
0.0
 40
14.04109670615071
  0
DIMENSION
  5
60E
102
{ACAD_XDICTIONARY
360
60F
102
}
330
1F
100
AcDbEntity
  8
dim @ 1
  6
ByBlock
100
AcDbDimension
  2
*D15
 10
438.0975954808094
 20
178.9305052338709
 30
0.0
 11
438.0975954808093
 21
190.9305052338709
 31
0.0
 70
   128
  1
{\H1.25x;<>}
 71
     5
 42
23.99999999999909
  3
副本 ISO-25
100
AcDbAlignedDimension
 13
410.2145319941048
 23
202.93050523387
 33
0.0
 14
410.2145319941085
 24
178.9305052338709
 34
0.0
 50
90.0
100
AcDbRotatedDimension
1001
AcadAnnotative
1000
AnnotativeData
1002
{
1070
     1
1070
     0
1002
}
1001
ACAD
1000
DSTYLE
1002
{
1070
    40
1040
1.0
1070
   279
1070
     0
1070
   289
1070
     3
1070
   174
1070
     0
1070
   175
1070
     0
1070
   172
1070
     1
1070
   140
1040
2.5
1070
   178
1070
     3
1070
   144
1040
1.0
1070
    41
1040
2.0
1070
    42
1040
0.4997500000000001
1070
    44
1040
0.4997500000000001
1070
   147
1040
0.4997500000000001
1002
}
  0
DIMENSION
  5
613
102
{ACAD_XDICTIONARY
360
614
102
}
102
{ACAD_REACTORS
330
615
102
}
330
1F
100
AcDbEntity
  8
dim @ 1
  6
ByBlock
100
AcDbDimension
  2
*D16
 10
430.8152706666712
 20
185.9305052338694
 30
0.0
 11
428.7199800800409
 21
190.9305052338705
 31
0.0
  1
{\H1.25x;<>}
 71
     5
 42
10.00000000000227
  3
副本 ISO-25
100
AcDbAlignedDimension
 13
406.8693277285762
 23
195.9305052338717
 33
0.0
 14
406.8693277285762
 24
185.9305052338694
 34
0.0
 50
90.0
100
AcDbRotatedDimension
1001
AcadAnnotative
1000
AnnotativeData
1002
{
1070
     1
1070
     0
1002
}
1001
ACAD
1000
DSTYLE
1002
{
1070
    40
1040
1.0
1070
   279
1070
     0
1070
   289
1070
     3
1070
   174
1070
     0
1070
   175
1070
     0
1070
   172
1070
     1
1070
   140
1040
2.5
1070
   178
1070
     3
1070
   144
1040
1.0
1070
    41
1040
2.0
1070
    42
1040
0.4997500000000001
1070
    44
1040
0.4997500000000001
1070
   147
1040
0.4997500000000001
1002
}
  0
ARC
  5
619
330
1F
100
AcDbEntity
  8
1.1L
  6
ByBlock
370
    40
100
AcDbCircle
 10
404.0298735556791
 20
190.93050523387
 30
0.0
 40
13.5
100
AcDbArc
 50
297.2660444507191
 51
302.7339555493315
  0
ARC
  5
61A
330
1F
100
AcDbEntity
  8
1.1L
  6
ByBlock
370
    40
100
AcDbCircle
 10
404.0298735556791
 20
190.93050523387
 30
0.0
 40
13.5
100
AcDbArc
 50
357.2660444507524
 51
2.733955549247561
  0
ARC
  5
61B
330
1F
100
AcDbEntity
  8
1.1L
  6
ByBlock
370
    40
100
AcDbCircle
 10
404.0298735556791
 20
190.93050523387
 30
0.0
 40
13.5
100
AcDbArc
 50
57.2660444506685
 51
62.73395554928089
  0
ARC
  5
61C
330
1F
100
AcDbEntity
  8
1.1L
  6
ByBlock
370
    40
100
AcDbCircle
 10
404.0298735556791
 20
190.93050523387
 30
0.0
 40
13.5
100
AcDbArc
 50
117.2660444507191
 51
122.7339555493315
  0
ARC
  5
61D
330
1F
100
AcDbEntity
  8
1.1L
  6
ByBlock
370
    40
100
AcDbCircle
 10
404.0298735556791
 20
190.93050523387
 30
0.0
 40
13.5
100
AcDbArc
 50
177.2660444507524
 51
182.7339555492475
  0
ARC
  5
61E
330
1F
100
AcDbEntity
  8
1.1L
  6
ByBlock
370
    40
100
AcDbCircle
 10
404.0298735556791
 20
190.93050523387
 30
0.0
 40
13.5
100
AcDbArc
 50
237.2660444506685
 51
242.7339555492809
  0
LWPOLYLINE
  5
61F
330
1F
100
AcDbEntity
  8
1.1L
  6
ByBlock
370
    40
100
AcDbPolyline
 90
        2
 70
     0
 43
0.0
 10
396.7298979294794
 20
202.2865765552774
 10
390.5452394910538
 20
191.5744339124626
  0
LWPOLYLINE
  5
620
330
1F
100
AcDbEntity
  8
1.1L
  6
ByBlock
370
    40
100
AcDbPolyline
 90
        2
 70
     0
 43
0.0
 10
390.5452394910538
 20
190.2865765552774
 10
396.7298979294794
 20
179.5744339124626
  0
LWPOLYLINE
  5
621
330
1F
100
AcDbEntity
  8
1.1L
  6
ByBlock
370
    40
100
AcDbPolyline
 90
        2
 70
     0
 43
0.0
 10
397.8452151172535
 20
178.93050523387
 10
410.2145319941048
 20
178.93050523387
  0
LWPOLYLINE
  5
622
330
1F
100
AcDbEntity
  8
1.1L
  6
ByBlock
370
    40
100
AcDbPolyline
 90
        2
 70
     0
 43
0.0
 10
411.3298491818788
 20
179.5744339124626
 10
417.5145076203046
 20
190.2865765552774
  0
LWPOLYLINE
  5
623
330
1F
100
AcDbEntity
  8
1.1L
  6
ByBlock
370
    40
100
AcDbPolyline
 90
        2
 70
     0
 43
0.0
 10
417.5145076203046
 20
191.5744339124626
 10
411.3298491818788
 20
202.2865765552774
  0
LWPOLYLINE
  5
624
330
1F
100
AcDbEntity
  8
1.1L
  6
ByBlock
370
    40
100
AcDbPolyline
 90
        2
 70
     0
 43
0.0
 10
410.2145319941048
 20
202.93050523387
 10
397.8452151172535
 20
202.93050523387
  0
DIMENSION
  5
625
102
{ACAD_XDICTIONARY
360
626
102
}
330
1F
100
AcDbEntity
  8
dim @ 1
  6
ByBlock
 62
     0
100
AcDbDimension
  2
*D17
 10
419.0298735556863
 20
235.1018298218637
 30
0.0
 11
404.0298735556936
 21
235.1018298218637
 31
0.0
 70
   128
  1
M<>*1.5
 71
     5
 42
29.99999999998545
  3
副本 ISO-25
100
AcDbAlignedDimension
 13
389.029873555701
 23
260.2764588799096
 33
0.0
 14
419.0298735556863
 24
260.2764588799287
 34
0.0
100
AcDbRotatedDimension
1001
AcadAnnotative
1000
AnnotativeData
1002
{
1070
     1
1070
     0
1002
}
1001
ACAD
1000
DSTYLE
1002
{
1070
    40
1040
1.0
1070
   279
1070
     0
1070
   289
1070
     3
1070
   174
1070
     0
1070
   175
1070
     0
1070
   172
1070
     1
1070
   178
1070
     3
1070
   144
1040
1.0
1070
    41
1040
2.0
1070
    42
1040
0.4997500000000001
1070
    44
1040
0.4997500000000001
1070
   140
1040
2.5
1070
   147
1040
0.4997500000000001
1002
}
  0
ARC
  5
62A
330
1F
100
AcDbEntity
  8
1.1L
  6
ByBlock
370
    40
100
AcDbCircle
 10
390.2298735556798
 20
252.6764588799284
 30
0.0
 40
0.3
100
AcDbArc
 50
180.0
 51
270.0
  0
ARC
  5
62B
330
1F
100
AcDbEntity
  8
1.1L
  6
ByBlock
370
    40
100
AcDbCircle
 10
417.8298735556784
 20
252.6764588799284
 30
0.0
 40
0.3
100
AcDbArc
 50
270.0
 51
0.0
  0
ARC
  5
62C
330
1F
100
AcDbEntity
  8
1.1L
370
    40
100
AcDbCircle
 10
418.0298735556791
 20
251.3314588799262
 30
0.0
 40
0.1
100
AcDbArc
 50
270.0
 51
0.0
  0
LINE
  5
62D
330
1F
100
AcDbEntity
  8
1.1L
370
    40
100
AcDbLine
 10
389.9298735556806
 20
252.2764588799277
 30
0.0
 11
389.9298735556806
 21
251.3314588799271
 31
0.0
  0
ARC
  5
62E
330
1F
100
AcDbEntity
  8
1.1L
370
    40
100
AcDbCircle
 10
390.0298735556792
 20
252.2764588799277
 30
0.0
 40
0.1
100
AcDbArc
 50
90.0
 51
179.9999999998957
  0
LINE
  5
62F
330
1F
100
AcDbEntity
  8
1.1L
370
    40
100
AcDbLine
 10
393.8398735556768
 20
249.9814588799267
 30
0.0
 11
414.2198735556815
 21
249.9814588799258
 31
0.0
  0
ARC
  5
630
330
1F
100
AcDbEntity
  8
1.1L
  6
ByBlock
370
    40
100
AcDbCircle
 10
393.8398735556768
 20
250.0814588799271
 30
0.0
 40
0.1
100
AcDbArc
 50
180.0
 51
270.0
  0
ARC
  5
631
330
1F
100
AcDbEntity
  8
1.1L
  6
ByBlock
100
AcDbCircle
 10
414.2198735556815
 20
250.0814588799262
 30
0.0
 40
0.1
100
AcDbArc
 50
270.0
 51
0.0
  0
ARC
  5
632
330
1F
100
AcDbEntity
  8
1.1L
370
    40
100
AcDbCircle
 10
390.0298735556792
 20
251.3314588799271
 30
0.0
 40
0.1
100
AcDbArc
 50
179.9999999998957
 51
270.0
  0
LINE
  5
633
330
1F
100
AcDbEntity
  8
1.1L
370
    40
100
AcDbLine
 10
418.1298735556777
 20
252.2764588799277
 30
0.0
 11
418.1298735556777
 21
251.3314588799262
 31
0.0
  0
LINE
  5
634
330
1F
100
AcDbEntity
  8
1.1L
370
    40
100
AcDbLine
 10
390.0298735556792
 20
251.2314588799259
 30
0.0
 11
418.0298735556791
 21
251.2314588799259
 31
0.0
  0
LINE
  5
635
330
1F
100
AcDbEntity
  8
1.1L
  6
ByBlock
100
AcDbLine
 10
414.31987355568
 20
250.2314588799268
 30
0.0
 11
414.31987355568
 21
250.0814588799262
 31
0.0
  0
LINE
  5
636
330
1F
100
AcDbEntity
  8
1.1L
370
    40
100
AcDbLine
 10
416.0097648277153
 20
250.2314588799263
 30
0.0
 11
392.0499822836431
 21
250.2314588799268
 31
0.0
  0
LINE
  5
637
330
1F
100
AcDbEntity
  8
1.1L
  6
ByBlock
370
    40
100
AcDbLine
 10
393.7398735556783
 20
250.2314588799268
 30
0.0
 11
393.7398735556783
 21
250.0814588799271
 31
0.0
  0
LINE
  5
638
330
1F
100
AcDbEntity
  8
1.1L
  6
ByBlock
370
    40
100
AcDbLine
 10
391.1398735556797
 20
251.2314588799277
 30
0.0
 11
392.0499822836431
 21
250.2314588799268
 31
0.0
  0
LINE
  5
639
330
1F
100
AcDbEntity
  8
1.1L
  6
ByBlock
370
    40
100
AcDbLine
 10
416.9198735556784
 20
251.2314588799259
 30
0.0
 11
416.0097648277153
 21
250.2314588799258
 31
0.0
  0
ARC
  5
63A
330
1F
100
AcDbEntity
  8
1.1L
370
    40
100
AcDbCircle
 10
418.0298735556791
 20
252.2764588799277
 30
0.0
 40
0.1
100
AcDbArc
 50
0.0
 51
90.0
  0
LINE
  5
63B
330
1F
100
AcDbEntity
  8
1.1L
370
    40
100
AcDbLine
 10
418.0298735556791
 20
252.3764588799281
 30
0.0
 11
390.0298735556792
 21
252.3764588799281
 31
0.0
  0
MTEXT
  5
63C
330
1F
100
AcDbEntity
  8
7L
100
AcDbMText
 10
378.1670635459707
 20
391.3635913494553
 30
0.0
 40
5.599999999999998
 41
43.8784744752047
 71
     2
 72
     5
  1
CSP-30ALP
 73
     1
 44
1.0
1001
ACAD
1000
MTEXTBEGIN
1070
    73
1070
     1
1070
    44
1040
1.0
1070
    74
1070
     0
1000
MTEXTEND
  0
MTEXT
  5
63D
330
1F
100
AcDbEntity
  8
7L
 62
   240
100
AcDbMText
 10
336.3375975183192
 20
405.8432573829267
 30
0.0
 40
6.959908799999997
 41
59.92249479840018
 71
     1
 72
     5
  1
{\fTimes New Roman|b1|i1|c0|p18;\C1;Clamptek}
 73
     1
 44
1.0
1001
ACAD
1000
MTEXTBEGIN
1070
    73
1070
     1
1070
    44
1040
1.0
1070
    74
1070
     0
1000
MTEXTEND
  0
MTEXT
  5
63E
330
1F
100
AcDbEntity
  8
7L
100
AcDbMText
 10
379.3390481038007
 20
409.6015730652206
 30
0.0
 40
1.979707391999992
 41
2.125425301622161
 71
     1
 72
     5
  1
{\fKaiTi_GB2312|b0|i0|c134|p49;\C1;R}
 73
     1
 44
1.0
1001
ACAD
1000
MTEXTBEGIN
1070
    73
1070
     1
1070
    44
1040
1.0
1070
    74
1070
     0
1000
MTEXTEND
  0
CIRCLE
  5
63F
330
1F
100
AcDbEntity
  8
7L
 62
     1
100
AcDbCircle
 10
379.7655865156269
 20
408.5747960414217
 30
0.0
 40
1.236327266304023
  0
MTEXT
  5
640
330
1F
100
AcDbEntity
  8
0
100
AcDbMText
 10
309.6225511900414
 20
390.9837160754313
 30
0.0
 40
6.390656999999997
 41
19.38925333799996
 71
     1
 72
     5
  1
{\H0.9412x;PART}
  7
ROMANS
 73
     1
 44
1.0
1001
ACAD
1000
MTEXTBEGIN
1070
    73
1070
     1
1070
    44
1040
1.0
1070
    74
1070
     0
1000
MTEXTEND
  0
LINE
  5
641
330
1F
100
AcDbEntity
  8
5L
 48
0.2
100
AcDbLine
 10
320.0748405406778
 20
398.4926773458247
 30
0.0
 11
324.6736336731485
 21
398.4926773458247
 31
0.0
  0
LINE
  5
642
330
1F
100
AcDbEntity
  8
5L
 48
0.5
370
     0
100
AcDbLine
 10
328.2931407386789
 20
405.3758651913875
 30
0.0
 11
326.7635434396654
 21
405.3758651913875
 31
0.0
  0
LINE
  5
643
330
1F
100
AcDbEntity
  8
5L
 62
     1
 48
0.5
370
     0
100
AcDbLine
 10
326.7635434396654
 20
402.5716034765282
 30
0.0
 11
328.2931407386789
 21
402.5716034765282
 31
0.0
  0
HATCH
  5
644
330
1F
100
AcDbEntity
  8
5L
 48
0.5
100
AcDbHatch
 10
0.0
 20
0.0
 30
0.0
210
0.0
220
0.0
230
1.0
  2
SOLID
 70
     1
 71
     0
 91
        1
 92
        7
 72
     0
 73
     1
 93
        4
 10
328.2931407386789
 20
405.3758651913867
 10
326.7635434396618
 20
405.3758651913867
 10
326.7635434396618
 20
402.5716034765308
 10
328.2931407386825
 20
402.5716034765308
 97
        0
 75
     0
 76
     1
 47
0.1695963248566213
 98
        1
 10
327.8202840085908
 20
403.3724828936683
  0
ARC
  5
645
330
1F
100
AcDbEntity
  8
5L
 62
     1
 48
0.5
100
AcDbCircle
 10
324.6736336731485
 20
405.8857309577251
 30
0.0
 40
7.393053611899605
100
AcDbArc
 50
269.2799010938334
 51
329.9999999999448
  0
ARC
  5
646
330
1F
100
AcDbEntity
  8
5L
 62
     1
 48
0.5
370
     0
100
AcDbCircle
 10
324.6736336731485
 20
405.8857309577251
 30
0.0
 40
7.393053611899959
100
AcDbArc
 50
269.2799010939376
 51
330.0000053566674
  0
LINE
  5
647
330
1F
100
AcDbEntity
  8
5L
 48
0.5
100
AcDbLine
 10
330.7868847504181
 20
405.3758651913875
 30
0.0
 11
324.6776920409977
 21
405.3758651913875
 31
0.0
  0
LINE
  5
648
330
1F
100
AcDbEntity
  8
5L
 62
     1
 48
0.5
100
AcDbLine
 10
330.8554275595091
 20
402.5716034765282
 30
0.0
 11
324.6776920409977
 21
402.5716034765273
 31
0.0
  0
LINE
  5
649
330
1F
100
AcDbEntity
  8
5L
 62
     1
 48
0.5
370
     0
100
AcDbLine
 10
330.8554275595091
 20
402.5716034765282
 30
0.0
 11
324.6776920409977
 21
402.5716034765282
 31
0.0
  0
LINE
  5
64A
330
1F
100
AcDbEntity
  8
5L
 62
     1
 48
0.5
370
     0
100
AcDbLine
 10
330.8554275595091
 20
402.5716034765282
 30
0.0
 11
324.6776920409977
 21
402.5716034765282
 31
0.0
  0
HATCH
  5
64B
330
1F
100
AcDbEntity
  8
5L
 48
0.5
100
AcDbHatch
 10
0.0
 20
0.0
 30
0.0
210
0.0
220
0.0
230
1.0
  2
SOLID
 70
     1
 71
     0
 91
        1
 92
        7
 72
     0
 73
     1
 93
        4
 10
330.7868847504181
 20
406.1406638408953
 10
324.6776920409977
 20
406.1406638408953
 10
324.6776920409977
 20
405.3758651913867
 10
330.7868847504181
 20
405.3758651913867
 97
        0
 75
     0
 76
     1
 47
0.0708786354052686
 98
        1
 10
327.5867838693232
 20
405.7614474068549
  0
LINE
  5
64C
330
1F
100
AcDbEntity
  8
5L
 48
0.5
100
AcDbLine
 10
326.7635434396654
 20
405.3758651913875
 30
0.0
 11
326.7635434396654
 21
402.5716034765282
 31
0.0
  0
LINE
  5
64D
330
1F
100
AcDbEntity
  8
5L
 48
0.5
370
     0
100
AcDbLine
 10
326.7635434396654
 20
405.3758651913875
 30
0.0
 11
326.7635434396654
 21
402.5716034765282
 31
0.0
  0
LINE
  5
64E
330
1F
100
AcDbEntity
  8
5L
 62
     1
 48
0.5
100
AcDbLine
 10
326.4964575872148
 20
402.3166705933581
 30
0.0
 11
326.4964575872148
 21
401.9342712686056
 31
0.0
  0
ARC
  5
64F
330
1F
100
AcDbEntity
  8
5L
 62
     1
 48
0.5
370
     0
100
AcDbCircle
 10
326.5307289917585
 20
400.4046739695914
 30
0.0
 40
0.1274664415844986
100
AcDbArc
 50
330.0001553410349
 51
90.0
  0
ARC
  5
650
330
1F
100
AcDbEntity
  8
5L
 62
     1
 48
0.5
370
     0
100
AcDbCircle
 10
326.5307289917585
 20
400.4046739695914
 30
0.0
 40
0.1274664415844986
100
AcDbArc
 50
330.0001553410349
 51
90.0
  0
ARC
  5
651
330
1F
100
AcDbEntity
  8
5L
 62
     1
 48
0.5
100
AcDbCircle
 10
326.5307289917585
 20
400.4046739695914
 30
0.0
 40
0.1274664415844761
100
AcDbArc
 50
329.9999999999675
 51
90.0
  0
LINE
  5
652
330
1F
100
AcDbEntity
  8
5L
 48
0.5
370
     0
100
AcDbLine
 10
324.6776920409977
 20
406.1406638408944
 30
0.0
 11
324.6776920409977
 21
405.3758651913875
 31
0.0
  0
LINE
  5
653
330
1F
100
AcDbEntity
  8
5L
 62
     1
 48
0.5
370
     0
100
AcDbLine
 10
324.6776920409977
 20
402.5716034765273
 30
0.0
 11
324.6776920409977
 21
402.0617377101906
 31
0.0
  0
LINE
  5
654
330
1F
100
AcDbEntity
  8
5L
 62
     1
 48
0.5
370
     0
100
AcDbLine
 10
324.6776920409977
 20
402.5716034765282
 30
0.0
 11
324.6776920409977
 21
402.0617377101906
 31
0.0
  0
LINE
  5
655
330
1F
100
AcDbEntity
  8
5L
 48
0.5
100
AcDbLine
 10
322.7911887055455
 20
400.5321404111763
 30
0.0
 11
321.7714571728686
 21
400.5321404111763
 31
0.0
  0
LINE
  5
656
330
1F
100
AcDbEntity
  8
5L
 48
0.5
370
     0
100
AcDbLine
 10
323.1480947419843
 20
400.5321404111763
 30
0.0
 11
321.771457172865
 21
400.5321404111763
 31
0.0
  0
LINE
  5
657
330
1F
100
AcDbEntity
  8
5L
 48
0.5
370
     0
100
AcDbLine
 10
323.1480947419843
 20
400.5321404111763
 30
0.0
 11
321.7714571728686
 21
400.5321404111763
 31
0.0
  0
ARC
  5
658
330
1F
100
AcDbEntity
  8
5L
 48
0.5
370
     0
100
AcDbCircle
 10
323.1480947419843
 20
402.0617377101906
 30
0.0
 40
1.52959729901371
100
AcDbArc
 50
270.0
 51
0.0
  0
ARC
  5
659
330
1F
100
AcDbEntity
  8
5L
 48
0.5
370
     0
100
AcDbCircle
 10
323.1480947419843
 20
402.0617377101906
 30
0.0
 40
1.529597299013764
100
AcDbArc
 50
270.0
 51
0.0
  0
ARC
  5
65A
330
1F
100
AcDbEntity
  8
5L
 48
0.5
100
AcDbCircle
 10
321.7714571728686
 20
402.0617377101906
 30
0.0
 40
1.52959729901371
100
AcDbArc
 50
180.0
 51
270.0
  0
ARC
  5
65B
330
1F
100
AcDbEntity
  8
5L
 48
0.5
370
     0
100
AcDbCircle
 10
321.7714571728686
 20
402.0617377101906
 30
0.0
 40
1.529597299013625
100
AcDbArc
 50
180.0
 51
270.0
  0
LINE
  5
65C
330
1F
100
AcDbEntity
  8
5L
 48
0.5
100
AcDbLine
 10
328.2931407386789
 20
405.3758651913875
 30
0.0
 11
328.2931407386789
 21
402.5716034765282
 31
0.0
  0
LINE
  5
65D
330
1F
100
AcDbEntity
  8
5L
 48
0.5
370
     0
100
AcDbLine
 10
328.2931407386789
 20
402.5716034765282
 30
0.0
 11
328.2931407386789
 21
405.3758651913875
 31
0.0
  0
LINE
  5
65E
330
1F
100
AcDbEntity
  8
5L
 48
0.5
370
     0
100
AcDbLine
 10
328.2931407386789
 20
402.5716034765282
 30
0.0
 11
328.2931407386789
 21
405.3758651913875
 31
0.0
  0
LINE
  5
65F
330
1F
100
AcDbEntity
  8
5L
 48
0.5
100
AcDbLine
 10
328.2931407386789
 20
405.3758651913875
 30
0.0
 11
328.2931407386789
 21
402.5716034765282
 31
0.0
  0
ARC
  5
660
330
1F
100
AcDbEntity
  8
5L
 48
0.5
370
     0
100
AcDbCircle
 10
321.7714571728686
 20
402.0617377101906
 30
0.0
 40
1.529597299013625
100
AcDbArc
 50
180.0
 51
270.0
  0
ARC
  5
661
330
1F
100
AcDbEntity
  8
5L
 48
0.5
100
AcDbCircle
 10
321.7714571728686
 20
402.0617377101906
 30
0.0
 40
1.52959729901371
100
AcDbArc
 50
180.0
 51
270.0
  0
ARC
  5
662
330
1F
100
AcDbEntity
  8
5L
 48
0.5
370
     0
100
AcDbCircle
 10
323.1480947419843
 20
402.0617377101906
 30
0.0
 40
1.529597299013764
100
AcDbArc
 50
270.0
 51
0.0
  0
ARC
  5
663
330
1F
100
AcDbEntity
  8
5L
 48
0.5
370
     0
100
AcDbCircle
 10
323.1480947419843
 20
402.0617377101906
 30
0.0
 40
1.52959729901371
100
AcDbArc
 50
270.0
 51
0.0
  0
LINE
  5
664
330
1F
100
AcDbEntity
  8
5L
 48
0.5
370
     0
100
AcDbLine
 10
323.1480947419843
 20
400.5321404111763
 30
0.0
 11
321.7714571728686
 21
400.5321404111763
 31
0.0
  0
LINE
  5
665
330
1F
100
AcDbEntity
  8
5L
 48
0.5
370
     0
100
AcDbLine
 10
323.1480947419843
 20
400.5321404111763
 30
0.0
 11
321.771457172865
 21
400.5321404111763
 31
0.0
  0
LINE
  5
666
330
1F
100
AcDbEntity
  8
5L
 48
0.5
100
AcDbLine
 10
322.7911887055455
 20
400.5321404111763
 30
0.0
 11
321.7714571728686
 21
400.5321404111763
 31
0.0
  0
LINE
  5
667
330
1F
100
AcDbEntity
  8
5L
 62
     1
 48
0.5
370
     0
100
AcDbLine
 10
324.6776920409977
 20
402.5716034765282
 30
0.0
 11
324.6776920409977
 21
402.0617377101906
 31
0.0
  0
LINE
  5
668
330
1F
100
AcDbEntity
  8
5L
 62
     1
 48
0.5
370
     0
100
AcDbLine
 10
324.6776920409977
 20
402.5716034765273
 30
0.0
 11
324.6776920409977
 21
402.0617377101906
 31
0.0
  0
LINE
  5
669
330
1F
100
AcDbEntity
  8
5L
 48
0.5
370
     0
100
AcDbLine
 10
324.6776920409977
 20
406.1406638408944
 30
0.0
 11
324.6776920409977
 21
405.3758651913875
 31
0.0
  0
ARC
  5
66A
330
1F
100
AcDbEntity
  8
5L
 62
     1
 48
0.5
100
AcDbCircle
 10
326.5307289917585
 20
400.4046739695914
 30
0.0
 40
0.1274664415844761
100
AcDbArc
 50
329.9999999999675
 51
90.0
  0
ARC
  5
66B
330
1F
100
AcDbEntity
  8
5L
 62
     1
 48
0.5
370
     0
100
AcDbCircle
 10
326.5307289917585
 20
400.4046739695914
 30
0.0
 40
0.1274664415844986
100
AcDbArc
 50
330.0001553410349
 51
90.0
  0
ARC
  5
66C
330
1F
100
AcDbEntity
  8
5L
 62
     1
 48
0.5
370
     0
100
AcDbCircle
 10
326.5307289917585
 20
400.4046739695914
 30
0.0
 40
0.1274664415844986
100
AcDbArc
 50
330.0001553410349
 51
90.0
  0
LINE
  5
66D
330
1F
100
AcDbEntity
  8
5L
 62
     1
 48
0.5
100
AcDbLine
 10
326.4964575872148
 20
402.3166705933581
 30
0.0
 11
326.4964575872148
 21
401.9342712686056
 31
0.0
  0
LINE
  5
66E
330
1F
100
AcDbEntity
  8
5L
 48
0.5
370
     0
100
AcDbLine
 10
326.7635434396654
 20
405.3758651913875
 30
0.0
 11
326.7635434396654
 21
402.5716034765282
 31
0.0
  0
LINE
  5
66F
330
1F
100
AcDbEntity
  8
5L
 48
0.5
100
AcDbLine
 10
326.7635434396654
 20
405.3758651913875
 30
0.0
 11
326.7635434396654
 21
402.5716034765282
 31
0.0
  0
HATCH
  5
670
330
1F
100
AcDbEntity
  8
5L
 48
0.5
100
AcDbHatch
 10
0.0
 20
0.0
 30
0.0
210
0.0
220
0.0
230
1.0
  2
SOLID
 70
     1
 71
     0
 91
        1
 92
        7
 72
     0
 73
     1
 93
        4
 10
330.7868847504181
 20
406.1406638408953
 10
324.6776920409977
 20
406.1406638408953
 10
324.6776920409977
 20
405.3758651913867
 10
330.7868847504181
 20
405.3758651913867
 97
        0
 75
     0
 76
     1
 47
0.0708786354052686
 98
        1
 10
327.5867838693232
 20
405.7614474068549
  0
LINE
  5
671
330
1F
100
AcDbEntity
  8
5L
 62
     1
 48
0.5
370
     0
100
AcDbLine
 10
330.8554275595091
 20
402.5716034765282
 30
0.0
 11
324.6776920409977
 21
402.5716034765282
 31
0.0
  0
LINE
  5
672
330
1F
100
AcDbEntity
  8
5L
 62
     1
 48
0.5
370
     0
100
AcDbLine
 10
330.8554275595091
 20
402.5716034765282
 30
0.0
 11
324.6776920409977
 21
402.5716034765282
 31
0.0
  0
LINE
  5
673
330
1F
100
AcDbEntity
  8
5L
 62
     1
 48
0.5
100
AcDbLine
 10
330.8554275595091
 20
402.5716034765282
 30
0.0
 11
324.6776920409977
 21
402.5716034765273
 31
0.0
  0
LINE
  5
674
330
1F
100
AcDbEntity
  8
5L
 48
0.5
100
AcDbLine
 10
330.7868847504181
 20
405.3758651913875
 30
0.0
 11
324.6776920409977
 21
405.3758651913875
 31
0.0
  0
ARC
  5
675
330
1F
100
AcDbEntity
  8
5L
 62
     1
 48
0.5
370
     0
100
AcDbCircle
 10
324.6736336731485
 20
405.8857309577251
 30
0.0
 40
7.393053611899959
100
AcDbArc
 50
269.2799010939376
 51
330.0000053566674
  0
ARC
  5
676
330
1F
100
AcDbEntity
  8
5L
 62
     1
 48
0.5
100
AcDbCircle
 10
324.6736336731485
 20
405.8857309577251
 30
0.0
 40
7.393053611899605
100
AcDbArc
 50
269.2799010938334
 51
329.9999999999448
  0
HATCH
  5
677
330
1F
100
AcDbEntity
  8
5L
 48
0.5
100
AcDbHatch
 10
0.0
 20
0.0
 30
0.0
210
0.0
220
0.0
230
1.0
  2
SOLID
 70
     1
 71
     0
 91
        1
 92
        7
 72
     0
 73
     1
 93
        4
 10
328.2931407386789
 20
405.3758651913867
 10
326.7635434396618
 20
405.3758651913867
 10
326.7635434396618
 20
402.5716034765308
 10
328.2931407386825
 20
402.5716034765308
 97
        0
 75
     0
 76
     1
 47
0.1695963248566213
 98
        1
 10
327.8202840085908
 20
403.3724828936683
  0
LINE
  5
678
330
1F
100
AcDbEntity
  8
5L
 62
     1
 48
0.5
370
     0
100
AcDbLine
 10
326.7635434396654
 20
402.5716034765282
 30
0.0
 11
328.2931407386789
 21
402.5716034765282
 31
0.0
  0
LINE
  5
679
330
1F
100
AcDbEntity
  8
5L
 48
0.5
370
     0
100
AcDbLine
 10
328.2931407386789
 20
405.3758651913875
 30
0.0
 11
326.7635434396654
 21
405.3758651913875
 31
0.0
  0
LINE
  5
67A
330
1F
100
AcDbEntity
  8
5L
 48
0.5
100
AcDbLine
 10
320.2418598738589
 20
409.7091403204431
 30
0.0
 11
320.2418598738589
 21
402.061737710188
 31
0.0
  0
LINE
  5
67B
330
1F
100
AcDbEntity
  8
5L
 48
0.5
370
     0
100
AcDbLine
 10
320.2418598738589
 20
402.061737710188
 30
0.0
 11
320.2418598738589
 21
409.7091403204431
 31
0.0
  0
LINE
  5
67C
330
1F
100
AcDbEntity
  8
5L
 48
0.5
370
     0
100
AcDbLine
 10
320.2418598738589
 20
402.061737710188
 30
0.0
 11
320.2418598738589
 21
409.7091403204431
 31
0.0
  0
LINE
  5
67D
330
1F
100
AcDbEntity
  8
5L
 48
0.5
100
AcDbLine
 10
320.2418598738589
 20
409.7091403204431
 30
0.0
 11
320.2418598738589
 21
402.061737710188
 31
0.0
  0
HATCH
  5
67E
330
1F
100
AcDbEntity
  8
5L
  6
Continuous
 48
0.5
100
AcDbHatch
 10
0.0
 20
0.0
 30
0.0
210
0.0
220
0.0
230
1.0
  2
SOLID
 70
     1
 71
     0
 91
        1
 92
        5
 93
       18
 72
     2
 10
321.7714571728686
 20
409.7091403204431
 40
1.529597299013825
 50
180.0
 51
269.9999999999653
 73
     0
 72
     1
 10
321.7714571728686
 20
411.2387376194583
 11
323.1480947419807
 21
411.2387376194583
 72
     2
 10
323.1480947419843
 20
409.7091403204431
 40
1.529597299013525
 50
269.9999999999653
 51
360.0000000000347
 73
     0
 72
     1
 10
324.6776920409977
 20
409.7091403204431
 11
330.5319518672479
 21
409.7091403204449
 72
     2
 10
330.5319518672479
 20
409.9640732036132
 40
0.2549328831689688
 50
270.0
 51
394.8441938451077
 73
     1
 72
     2
 10
324.6736336731449
 20
405.8857309577251
 40
7.393053611899884
 50
34.84419384513769
 51
90.72009890606596
 73
     1
 72
     1
 10
324.5807195054515
 20
413.278200684812
 11
319.9819263729662
 21
413.278200684812
 72
     2
 10
320.0748405406778
 20
405.8857309577251
 40
7.393053611899598
 50
90.72009890615943
 51
270.0
 73
     1
 72
     1
 10
320.0748405406778
 20
398.4926773458265
 11
324.3372203072762
 21
398.4926773458265
 72
     3
 10
324.3372203073162
 20
405.8857309577251
 11
19.37489912084032
 21
0.0
 40
0.3815789473684212
 50
270.0
 51
271.8865730317933
 73
     1
 72
     2
 10
324.6736336731449
 20
405.8857309577251
 40
7.393053611899959
 50
269.2799010938837
 51
330.0000053565856
 73
     1
 72
     2
 10
330.8554275595091
 20
402.3166705933599
 40
0.2549328831689968
 50
330.0001553408997
 51
450.0
 73
     1
 72
     1
 10
330.8554275595091
 20
402.5716034765308
 11
324.6776920409977
 21
402.5716034765318
 72
     1
 10
324.6776920409977
 20
402.5716034765308
 11
324.6776920409977
 21
402.0617377101926
 72
     2
 10
323.1480947419843
 20
402.0617377101898
 40
1.52959729901371
 50
360.0
 51
450.0
 73
     0
 72
     1
 10
323.1480947419843
 20
400.5321404111763
 11
321.7714571728722
 21
400.5321404111763
 72
     2
 10
321.7714571728686
 20
402.0617377101898
 40
1.529597299013625
 50
90.0
 51
179.9999999999913
 73
     0
 72
     1
 10
320.2418598738552
 20
402.0617377101898
 11
320.2418598738552
 21
409.709140320444
 97
        0
 75
     0
 76
     1
 47
0.1695963248566213
 98
        1
 10
317.6013461045116
 20
407.6960517729429
  0
ARC
  5
67F
330
1F
100
AcDbEntity
  8
5L
 48
0.5
100
AcDbCircle
 10
320.0748405406814
 20
405.8857309577251
 30
0.0
 40
7.393053611899605
100
AcDbArc
 50
90.7200989061666
 51
270.0
  0
ARC
  5
680
330
1F
100
AcDbEntity
  8
5L
 48
0.5
370
     0
100
AcDbCircle
 10
320.0748405406778
 20
405.8857309577251
 30
0.0
 40
7.393053611899577
100
AcDbArc
 50
90.7200989061666
 51
270.0
  0
ARC
  5
681
330
1F
100
AcDbEntity
  8
5L
 48
0.5
370
     0
100
AcDbCircle
 10
320.0748405406778
 20
405.8857309577251
 30
0.0
 40
7.393053611899598
100
AcDbArc
 50
90.7200989061666
 51
270.0
  0
ARC
  5
682
330
1F
100
AcDbEntity
  8
5L
 48
0.5
370
     0
100
AcDbCircle
 10
320.0748405406778
 20
405.8857309577251
 30
0.0
 40
7.393053611899598
100
AcDbArc
 50
90.7200989061666
 51
270.0
  0
ARC
  5
683
330
1F
100
AcDbEntity
  8
5L
 48
0.5
370
     0
100
AcDbCircle
 10
320.0748405406778
 20
405.8857309577251
 30
0.0
 40
7.393053611899577
100
AcDbArc
 50
90.7200989061666
 51
270.0
  0
ARC
  5
684
330
1F
100
AcDbEntity
  8
5L
 48
0.5
100
AcDbCircle
 10
320.0748405406814
 20
405.8857309577251
 30
0.0
 40
7.393053611899605
100
AcDbArc
 50
90.7200989061666
 51
270.0
  0
MTEXT
  5
685
330
1F
100
AcDbEntity
  8
0
100
AcDbMText
 10
330.1414486792676
 20
391.0859665874314
 30
0.0
 40
6.014735999999995
 41
30.86687331
 71
     1
 72
     5
  1
NUMBER:
  7
ROMANS
 73
     1
 44
1.0
1001
ACAD
1000
MTEXTBEGIN
1070
    73
1070
     1
1070
    44
1040
1.0
1070
    74
1070
     0
1000
MTEXTEND
  0
LINE
  5
686
330
1F
100
AcDbEntity
  8
1.1L
  6
ByBlock
100
AcDbLine
 10
299.0298735556791
 20
426.7781334858018
 30
0.0
 11
509.0298735556792
 21
426.7781334858018
 31
0.0
  0
LINE
  5
687
330
1F
100
AcDbEntity
  8
1.1L
  6
ByBlock
100
AcDbLine
 10
509.0298735556792
 20
426.7781334858018
 30
0.0
 11
509.0298735556792
 21
129.7781334858018
 31
0.0
  0
LINE
  5
688
330
1F
100
AcDbEntity
  8
1.1L
  6
ByBlock
100
AcDbLine
 10
509.0298735556792
 20
129.7781334858018
 30
0.0
 11
299.0298735556791
 21
129.7781334858018
 31
0.0
  0
LINE
  5
689
330
1F
100
AcDbEntity
  8
1.1L
  6
ByBlock
100
AcDbLine
 10
299.0298735556791
 20
129.7781334858018
 30
0.0
 11
299.0298735556791
 21
426.7781334858018
 31
0.0
  0
ENDSEC
  0
SECTION
  2
OBJECTS
  0
DICTIONARY
  5
C
330
0
100
AcDbDictionary
281
     1
  3
ACAD_CIP_PREVIOUS_PRODUCT_INFO
350
1A5
  3
ACAD_COLOR
350
73
  3
ACAD_DETAILVIEWSTYLE
350
1AB
  3
ACAD_GROUP
350
D
  3
ACAD_LAYOUT
350
1A
  3
ACAD_MATERIAL
350
72
  3
ACAD_MLEADERSTYLE
350
D7
  3
ACAD_MLINESTYLE
350
17
  3
ACAD_PLOTSETTINGS
350
19
  3
ACAD_PLOTSTYLENAME
350
E
  3
ACAD_SCALELIST
350
B6
  3
ACAD_SECTIONVIEWSTYLE
350
1A8
  3
ACAD_TABLESTYLE
350
86
  3
ACAD_VISUALSTYLE
350
99
  3
ACDB_RECOMPOSE_DATA
350
827
  3
AcDbVariableDictionary
350
66
  3
DWGPROPS
350
828
  3
lxx_dict
350
1D2
  0
DICTIONARY
  5
18E
330
2
100
AcDbDictionary
280
     1
281
     1
  3
ACAD_LAYERSTATES
360
18F
  0
DICTIONARY
  5
E6
330
10
100
AcDbDictionary
280
     1
281
     1
  0
DICTIONARY
  5
250
330
24F
100
AcDbDictionary
280
     1
281
     1
  0
DICTIONARY
  5
252
330
251
100
AcDbDictionary
280
     1
281
     1
  0
DICTIONARY
  5
254
330
253
100
AcDbDictionary
280
     1
281
     1
  0
DICTIONARY
  5
256
330
255
100
AcDbDictionary
280
     1
281
     1
  0
DICTIONARY
  5
825
330
824
100
AcDbDictionary
280
     1
281
     1
  3
ASDK_XREC_ANNO_SCALE_INFO
360
826
  0
DICTIONARY
  5
15D
330
1F
100
AcDbDictionary
280
     1
281
     1
  0
DICTIONARY
  5
47F
330
47E
100
AcDbDictionary
280
     1
281
     1
  3
AcDbContextDataManager
360
480
  0
DICTIONARY
  5
484
330
483
100
AcDbDictionary
280
     1
281
     1
  3
AcDbContextDataManager
360
485
  0
DICTIONARY
  5
489
330
488
100
AcDbDictionary
280
     1
281
     1
  3
AcDbContextDataManager
360
48A
  0
DICTIONARY
  5
48E
330
48D
100
AcDbDictionary
280
     1
281
     1
  3
AcDbContextDataManager
360
48F
  0
DICTIONARY
  5
493
330
492
100
AcDbDictionary
280
     1
281
     1
  3
AcDbContextDataManager
360
494
  0
DICTIONARY
  5
498
330
497
100
AcDbDictionary
280
     1
281
     1
  3
AcDbContextDataManager
360
499
  0
DICTIONARY
  5
49D
330
49C
100
AcDbDictionary
280
     1
281
     1
  3
AcDbContextDataManager
360
49E
  0
DICTIONARY
  5
4A2
330
4A1
100
AcDbDictionary
280
     1
281
     1
  3
AcDbContextDataManager
360
4A3
  0
DICTIONARY
  5
4A7
330
4A6
100
AcDbDictionary
280
     1
281
     1
  3
AcDbContextDataManager
360
4A8
  0
DICTIONARY
  5
4AC
330
4AB
100
AcDbDictionary
280
     1
281
     1
  3
AcDbContextDataManager
360
4AD
  0
DICTIONARY
  5
4B1
330
4B0
100
AcDbDictionary
280
     1
281
     1
  3
AcDbContextDataManager
360
4B2
  0
DICTIONARY
  5
4B6
330
4B5
100
AcDbDictionary
280
     1
281
     1
  3
AcDbContextDataManager
360
4B7
  0
DICTIONARY
  5
4BB
330
4BA
100
AcDbDictionary
280
     1
281
     1
  3
AcDbContextDataManager
360
4BC
  0
DICTIONARY
  5
4C0
330
4BF
100
AcDbDictionary
280
     1
281
     1
  3
AcDbContextDataManager
360
4C1
  0
DICTIONARY
  5
4C5
330
4C4
100
AcDbDictionary
280
     1
281
     1
  3
AcDbContextDataManager
360
4C6
  0
DICTIONARY
  5
4CA
330
4C9
100
AcDbDictionary
280
     1
281
     1
  3
AcDbContextDataManager
360
4CB
  0
DICTIONARY
  5
4CF
330
4CE
100
AcDbDictionary
280
     1
281
     1
  3
AcDbContextDataManager
360
4D0
  0
DICTIONARY
  5
4D4
330
4D3
100
AcDbDictionary
280
     1
281
     1
  3
AcDbContextDataManager
360
4D5
  0
DICTIONARY
  5
4D9
330
4D8
100
AcDbDictionary
280
     1
281
     1
  3
AcDbContextDataManager
360
4DA
  0
DICTIONARY
  5
4DE
330
4DD
100
AcDbDictionary
280
     1
281
     1
  3
AcDbContextDataManager
360
4DF
  0
DICTIONARY
  5
4E3
330
4E2
100
AcDbDictionary
280
     1
281
     1
  3
AcDbContextDataManager
360
4E4
  0
DICTIONARY
  5
4E8
330
4E7
100
AcDbDictionary
280
     1
281
     1
  3
AcDbContextDataManager
360
4E9
  0
DICTIONARY
  5
4ED
330
4EC
100
AcDbDictionary
280
     1
281
     1
  3
AcDbContextDataManager
360
4EE
  0
DICTIONARY
  5
4F2
330
4F1
100
AcDbDictionary
280
     1
281
     1
  3
AcDbContextDataManager
360
4F3
  0
DICTIONARY
  5
4F7
330
4F6
100
AcDbDictionary
280
     1
281
     1
  3
AcDbContextDataManager
360
4F8
  0
DICTIONARY
  5
4FC
330
4FB
100
AcDbDictionary
280
     1
281
     1
  3
AcDbContextDataManager
360
4FD
  0
DICTIONARY
  5
501
330
500
100
AcDbDictionary
280
     1
281
     1
  3
AcDbContextDataManager
360
502
  0
DICTIONARY
  5
506
330
505
100
AcDbDictionary
280
     1
281
     1
  3
AcDbContextDataManager
360
507
  0
DICTIONARY
  5
50B
330
50A
100
AcDbDictionary
280
     1
281
     1
  3
AcDbContextDataManager
360
50C
  0
DICTIONARY
  5
511
330
510
100
AcDbDictionary
280
     1
281
     1
  3
AcDbContextDataManager
360
512
  0
DICTIONARY
  5
516
330
515
100
AcDbDictionary
280
     1
281
     1
  3
AcDbContextDataManager
360
517
  0
DICTIONARY
  5
51B
330
51A
100
AcDbDictionary
280
     1
281
     1
  3
AcDbContextDataManager
360
51C
  0
DICTIONARY
  5
520
330
51F
100
AcDbDictionary
280
     1
281
     1
  3
AcDbContextDataManager
360
521
  0
DICTIONARY
  5
525
330
524
100
AcDbDictionary
280
     1
281
     1
  3
AcDbContextDataManager
360
526
  0
DICTIONARY
  5
52A
330
529
100
AcDbDictionary
280
     1
281
     1
  3
AcDbContextDataManager
360
52B
  0
DICTIONARY
  5
52F
330
52E
100
AcDbDictionary
280
     1
281
     1
  3
AcDbContextDataManager
360
530
  0
DICTIONARY
  5
539
330
538
100
AcDbDictionary
280
     1
281
     1
  3
AcDbContextDataManager
360
53A
  0
DICTIONARY
  5
53E
330
53D
100
AcDbDictionary
280
     1
281
     1
  3
AcDbContextDataManager
360
53F
  0
DICTIONARY
  5
543
330
542
100
AcDbDictionary
280
     1
281
     1
  3
AcDbContextDataManager
360
544
  0
DICTIONARY
  5
54B
330
54A
100
AcDbDictionary
280
     1
281
     1
  3
AcDbContextDataManager
360
54C
  0
DICTIONARY
  5
550
330
54F
100
AcDbDictionary
280
     1
281
     1
  3
AcDbContextDataManager
360
551
  0
DICTIONARY
  5
555
330
554
100
AcDbDictionary
280
     1
281
     1
  3
AcDbContextDataManager
360
556
  0
DICTIONARY
  5
55A
330
559
100
AcDbDictionary
280
     1
281
     1
  3
AcDbContextDataManager
360
55B
  0
DICTIONARY
  5
55F
330
55E
100
AcDbDictionary
280
     1
281
     1
  3
AcDbContextDataManager
360
560
  0
DICTIONARY
  5
569
330
568
100
AcDbDictionary
280
     1
281
     1
  3
AcDbContextDataManager
360
56A
  0
DICTIONARY
  5
56E
330
56D
100
AcDbDictionary
280
     1
281
     1
  3
AcDbContextDataManager
360
56F
  0
DICTIONARY
  5
573
330
572
100
AcDbDictionary
280
     1
281
     1
  3
AcDbContextDataManager
360
574
  0
DICTIONARY
  5
578
330
577
100
AcDbDictionary
280
     1
281
     1
  3
AcDbContextDataManager
360
579
  0
DICTIONARY
  5
57D
330
57C
100
AcDbDictionary
280
     1
281
     1
  3
AcDbContextDataManager
360
57E
  0
DICTIONARY
  5
582
330
581
100
AcDbDictionary
280
     1
281
     1
  3
AcDbContextDataManager
360
583
  0
DICTIONARY
  5
587
330
586
100
AcDbDictionary
280
     1
281
     1
  3
AcDbContextDataManager
360
588
  0
DICTIONARY
  5
58C
330
58B
100
AcDbDictionary
280
     1
281
     1
  3
AcDbContextDataManager
360
58D
  0
DICTIONARY
  5
591
330
590
100
AcDbDictionary
280
     1
281
     1
  3
AcDbContextDataManager
360
592
  0
DICTIONARY
  5
596
330
595
100
AcDbDictionary
280
     1
281
     1
  3
AcDbContextDataManager
360
597
  0
DICTIONARY
  5
59B
330
59A
100
AcDbDictionary
280
     1
281
     1
  3
AcDbContextDataManager
360
59C
  0
DICTIONARY
  5
5D4
330
5D3
100
AcDbDictionary
280
     1
281
     1
  3
ACAD_DIMASSOC
360
5D5
  3
AcDbContextDataManager
360
5D6
  0
DICTIONARY
  5
5DA
330
5D9
100
AcDbDictionary
280
     1
281
     1
  3
AcDbContextDataManager
360
5DB
  0
DICTIONARY
  5
5E5
330
5E4
100
AcDbDictionary
280
     1
281
     1
  3
ACAD_DIMASSOC
360
5E6
  3
AcDbContextDataManager
360
5E7
  0
DICTIONARY
  5
5EB
330
5EA
100
AcDbDictionary
280
     1
281
     1
  3
ACAD_DIMASSOC
360
5EC
  3
AcDbContextDataManager
360
5ED
  0
DICTIONARY
  5
5F1
330
5F0
100
AcDbDictionary
280
     1
281
     1
  3
ACAD_DIMASSOC
360
5F2
  3
AcDbContextDataManager
360
5F3
  0
DICTIONARY
  5
5F7
330
5F6
100
AcDbDictionary
280
     1
281
     1
  3
ACAD_DIMASSOC
360
5F8
  3
AcDbContextDataManager
360
5F9
  0
DICTIONARY
  5
5FD
330
5FC
100
AcDbDictionary
280
     1
281
     1
  3
AcDbContextDataManager
360
5FE
  0
DICTIONARY
  5
60F
330
60E
100
AcDbDictionary
280
     1
281
     1
  3
AcDbContextDataManager
360
610
  0
DICTIONARY
  5
614
330
613
100
AcDbDictionary
280
     1
281
     1
  3
ACAD_DIMASSOC
360
615
  3
AcDbContextDataManager
360
616
  0
DICTIONARY
  5
626
330
625
100
AcDbDictionary
280
     1
281
     1
  3
AcDbContextDataManager
360
627
  0
XRECORD
  5
1A5
102
{ACAD_REACTORS
330
C
102
}
330
C
100
AcDbXrecord
280
     1
300
ACD
300
2014
300
ACD_F_S
  0
DICTIONARY
  5
73
102
{ACAD_REACTORS
330
C
102
}
330
C
100
AcDbDictionary
281
     1
  0
DICTIONARY
  5
1AB
102
{ACAD_REACTORS
330
C
102
}
330
C
100
AcDbDictionary
281
     1
  3
Imperial24
350
1AC
  0
DICTIONARY
  5
D
102
{ACAD_REACTORS
330
C
102
}
330
C
100
AcDbDictionary
281
     1
  0
DICTIONARY
  5
1A
102
{ACAD_REACTORS
330
C
102
}
330
C
100
AcDbDictionary
281
     1
  3
Model
350
22
  3
配置1
350
59
  3
配置2
350
5E
  0
DICTIONARY
  5
72
102
{ACAD_REACTORS
330
C
102
}
330
C
100
AcDbDictionary
281
     1
  3
ByBlock
350
97
  3
ByLayer
350
96
  3
Global
350
98
  0
DICTIONARY
  5
D7
102
{ACAD_REACTORS
330
C
102
}
330
C
100
AcDbDictionary
281
     1
  3
Standard
350
D8
  3
可註解
350
E5
  0
DICTIONARY
  5
17
102
{ACAD_REACTORS
330
C
102
}
330
C
100
AcDbDictionary
281
     1
  3
Standard
350
18
  0
DICTIONARY
  5
19
102
{ACAD_REACTORS
330
C
102
}
330
C
100
AcDbDictionary
281
     1
  0
ACDBDICTIONARYWDFLT
  5
E
102
{ACAD_REACTORS
330
C
102
}
330
C
100
AcDbDictionary
281
     1
  3
Normal
350
F
100
AcDbDictionaryWithDefault
340
F
  0
DICTIONARY
  5
B6
102
{ACAD_REACTORS
330
C
102
}
330
C
100
AcDbDictionary
281
     1
  3
A0
350
B7
  3
A1
350
124
  3
A2
350
125
  3
A3
350
126
  3
A4
350
127
  3
A5
350
128
  3
A6
350
129
  3
A7
350
12A
  3
A8
350
12B
  3
A9
350
12C
  3
B0
350
12D
  3
B1
350
12E
  3
B2
350
12F
  3
B3
350
130
  3
B4
350
131
  3
B5
350
132
  3
B6
350
133
  3
B7
350
134
  3
B8
350
135
  3
B9
350
136
  3
C0
350
137
  3
C1
350
138
  3
C2
350
139
  3
C3
350
13A
  3
C4
350
13B
  3
C5
350
13C
  3
C6
350
13D
  3
C7
350
13E
  3
C8
350
13F
  3
C9
350
140
  3
D0
350
141
  3
D1
350
142
  3
D2
350
143
  0
DICTIONARY
  5
1A8
102
{ACAD_REACTORS
330
C
102
}
330
C
100
AcDbDictionary
281
     1
  3
Imperial24
350
1AA
  0
DICTIONARY
  5
86
102
{ACAD_REACTORS
330
C
102
}
330
C
100
AcDbDictionary
281
     1
  3
Standard
350
87
  0
DICTIONARY
  5
99
102
{ACAD_REACTORS
330
C
102
}
330
C
100
AcDbDictionary
281
     1
  3
2dWireframe
350
9F
  3
3dWireframe
350
263
  3
Basic
350
9E
  3
Brighten
350
A5
  3
ColorChange
350
A9
  3
Conceptual
350
A2
  3
Dim
350
A4
  3
EdgeColorOff
350
175
  3
Facepattern
350
A8
  3
Flat
350
9A
  3
FlatWithEdges
350
9B
  3
Gouraud
350
9C
  3
GouraudWithEdges
350
9D
  3
Hidden
350
A1
  3
JitterOff
350
173
  3
Linepattern
350
A7
  3
OverhangOff
350
174
  3
Realistic
350
A3
  3
Shaded
350
182
  3
Shaded with edges
350
181
  3
Shades of Gray
350
17E
  3
Sketchy
350
17F
  3
Thicken
350
A6
  3
Wireframe
350
A0
  3
X-Ray
350
180
  0
XRECORD
  5
827
102
{ACAD_REACTORS
330
C
102
}
330
C
100
AcDbXrecord
280
     1
 90
        1
330
87
330
47E
330
483
330
488
330
48D
330
492
330
497
330
49C
330
4A1
330
4A6
330
4AB
330
4B0
330
4B5
330
4BA
330
4BF
330
4C4
330
4C9
330
4CE
330
4D3
330
4D8
330
4DD
330
4E2
330
4E7
330
4EC
330
4F1
330
4F6
330
4FB
330
500
330
505
330
50A
330
510
330
515
330
51A
330
51F
330
524
330
529
330
52E
330
538
330
53D
330
542
330
54A
330
54F
330
554
330
559
330
55E
330
568
330
56D
330
572
330
577
330
57C
330
581
330
586
330
58B
330
590
330
595
330
59A
330
5D3
330
5D9
330
5E4
330
5EA
330
5F0
330
5F6
330
5FC
330
60E
330
613
330
625
  0
DICTIONARY
  5
66
102
{ACAD_REACTORS
330
C
102
}
330
C
100
AcDbDictionary
281
     1
  3
CANNOSCALE
350
F0
  3
CMLEADERSTYLE
350
EF
  3
CTABLESTYLE
350
89
  3
CVIEWDETAILSTYLE
350
1B7
  3
CVIEWSECTIONSTYLE
350
1B8
  3
DIMASSOC
350
67
  3
HIDETEXT
350
6B
  3
INDEXCTL
350
771
  3
LAYEREVAL
350
14D
  3
LAYERNOTIFY
350
14E
  3
LIGHTINGUNITS
350
76F
  3
MSLTSCALE
350
76E
  3
SORTENTS
350
770
  3
XCLIPFRAME
350
822
  0
XRECORD
  5
828
102
{ACAD_REACTORS
330
C
102
}
330
C
100
AcDbXrecord
280
     1
  1
DWGPROPS COOKIE
  2

  3

  4

  6

  7

  8
wxj
  9

300
=
301
=
302
=
303
=
304
=
305
=
306
=
307
=
308
=
309
=
 40
0.0006869212962963
 41
2458487.697577801
 42
2458488.396718287
  1

 90
        0
  0
DICTIONARY
  5
1D2
102
{ACAD_REACTORS
330
C
102
}
330
C
100
AcDbDictionary
281
     1
  3
lxx_dimth
350
1D3
  0
DICTIONARY
  5
18F
102
{ACAD_REACTORS
330
18E
102
}
330
18E
100
AcDbDictionary
281
     1
  0
XRECORD
  5
826
102
{ACAD_REACTORS
330
825
102
}
330
825
100
AcDbXrecord
280
     1
 70
     1
340
B7
340
258
 70
    -1
  0
DICTIONARY
  5
480
102
{ACAD_REACTORS
330
47F
102
}
330
47F
100
AcDbDictionary
281
     1
  3
ACDB_ANNOTATIONSCALES
350
481
  0
DICTIONARY
  5
485
102
{ACAD_REACTORS
330
484
102
}
330
484
100
AcDbDictionary
281
     1
  3
ACDB_ANNOTATIONSCALES
350
486
  0
DICTIONARY
  5
48A
102
{ACAD_REACTORS
330
489
102
}
330
489
100
AcDbDictionary
281
     1
  3
ACDB_ANNOTATIONSCALES
350
48B
  0
DICTIONARY
  5
48F
102
{ACAD_REACTORS
330
48E
102
}
330
48E
100
AcDbDictionary
281
     1
  3
ACDB_ANNOTATIONSCALES
350
490
  0
DICTIONARY
  5
494
102
{ACAD_REACTORS
330
493
102
}
330
493
100
AcDbDictionary
281
     1
  3
ACDB_ANNOTATIONSCALES
350
495
  0
DICTIONARY
  5
499
102
{ACAD_REACTORS
330
498
102
}
330
498
100
AcDbDictionary
281
     1
  3
ACDB_ANNOTATIONSCALES
350
49A
  0
DICTIONARY
  5
49E
102
{ACAD_REACTORS
330
49D
102
}
330
49D
100
AcDbDictionary
281
     1
  3
ACDB_ANNOTATIONSCALES
350
49F
  0
DICTIONARY
  5
4A3
102
{ACAD_REACTORS
330
4A2
102
}
330
4A2
100
AcDbDictionary
281
     1
  3
ACDB_ANNOTATIONSCALES
350
4A4
  0
DICTIONARY
  5
4A8
102
{ACAD_REACTORS
330
4A7
102
}
330
4A7
100
AcDbDictionary
281
     1
  3
ACDB_ANNOTATIONSCALES
350
4A9
  0
DICTIONARY
  5
4AD
102
{ACAD_REACTORS
330
4AC
102
}
330
4AC
100
AcDbDictionary
281
     1
  3
ACDB_ANNOTATIONSCALES
350
4AE
  0
DICTIONARY
  5
4B2
102
{ACAD_REACTORS
330
4B1
102
}
330
4B1
100
AcDbDictionary
281
     1
  3
ACDB_ANNOTATIONSCALES
350
4B3
  0
DICTIONARY
  5
4B7
102
{ACAD_REACTORS
330
4B6
102
}
330
4B6
100
AcDbDictionary
281
     1
  3
ACDB_ANNOTATIONSCALES
350
4B8
  0
DICTIONARY
  5
4BC
102
{ACAD_REACTORS
330
4BB
102
}
330
4BB
100
AcDbDictionary
281
     1
  3
ACDB_ANNOTATIONSCALES
350
4BD
  0
DICTIONARY
  5
4C1
102
{ACAD_REACTORS
330
4C0
102
}
330
4C0
100
AcDbDictionary
281
     1
  3
ACDB_ANNOTATIONSCALES
350
4C2
  0
DICTIONARY
  5
4C6
102
{ACAD_REACTORS
330
4C5
102
}
330
4C5
100
AcDbDictionary
281
     1
  3
ACDB_ANNOTATIONSCALES
350
4C7
  0
DICTIONARY
  5
4CB
102
{ACAD_REACTORS
330
4CA
102
}
330
4CA
100
AcDbDictionary
281
     1
  3
ACDB_ANNOTATIONSCALES
350
4CC
  0
DICTIONARY
  5
4D0
102
{ACAD_REACTORS
330
4CF
102
}
330
4CF
100
AcDbDictionary
281
     1
  3
ACDB_ANNOTATIONSCALES
350
4D1
  0
DICTIONARY
  5
4D5
102
{ACAD_REACTORS
330
4D4
102
}
330
4D4
100
AcDbDictionary
281
     1
  3
ACDB_ANNOTATIONSCALES
350
4D6
  0
DICTIONARY
  5
4DA
102
{ACAD_REACTORS
330
4D9
102
}
330
4D9
100
AcDbDictionary
281
     1
  3
ACDB_ANNOTATIONSCALES
350
4DB
  0
DICTIONARY
  5
4DF
102
{ACAD_REACTORS
330
4DE
102
}
330
4DE
100
AcDbDictionary
281
     1
  3
ACDB_ANNOTATIONSCALES
350
4E0
  0
DICTIONARY
  5
4E4
102
{ACAD_REACTORS
330
4E3
102
}
330
4E3
100
AcDbDictionary
281
     1
  3
ACDB_ANNOTATIONSCALES
350
4E5
  0
DICTIONARY
  5
4E9
102
{ACAD_REACTORS
330
4E8
102
}
330
4E8
100
AcDbDictionary
281
     1
  3
ACDB_ANNOTATIONSCALES
350
4EA
  0
DICTIONARY
  5
4EE
102
{ACAD_REACTORS
330
4ED
102
}
330
4ED
100
AcDbDictionary
281
     1
  3
ACDB_ANNOTATIONSCALES
350
4EF
  0
DICTIONARY
  5
4F3
102
{ACAD_REACTORS
330
4F2
102
}
330
4F2
100
AcDbDictionary
281
     1
  3
ACDB_ANNOTATIONSCALES
350
4F4
  0
DICTIONARY
  5
4F8
102
{ACAD_REACTORS
330
4F7
102
}
330
4F7
100
AcDbDictionary
281
     1
  3
ACDB_ANNOTATIONSCALES
350
4F9
  0
DICTIONARY
  5
4FD
102
{ACAD_REACTORS
330
4FC
102
}
330
4FC
100
AcDbDictionary
281
     1
  3
ACDB_ANNOTATIONSCALES
350
4FE
  0
DICTIONARY
  5
502
102
{ACAD_REACTORS
330
501
102
}
330
501
100
AcDbDictionary
281
     1
  3
ACDB_ANNOTATIONSCALES
350
503
  0
DICTIONARY
  5
507
102
{ACAD_REACTORS
330
506
102
}
330
506
100
AcDbDictionary
281
     1
  3
ACDB_ANNOTATIONSCALES
350
508
  0
DICTIONARY
  5
50C
102
{ACAD_REACTORS
330
50B
102
}
330
50B
100
AcDbDictionary
281
     1
  3
ACDB_ANNOTATIONSCALES
350
50D
  0
DICTIONARY
  5
512
102
{ACAD_REACTORS
330
511
102
}
330
511
100
AcDbDictionary
281
     1
  3
ACDB_ANNOTATIONSCALES
350
513
  0
DICTIONARY
  5
517
102
{ACAD_REACTORS
330
516
102
}
330
516
100
AcDbDictionary
281
     1
  3
ACDB_ANNOTATIONSCALES
350
518
  0
DICTIONARY
  5
51C
102
{ACAD_REACTORS
330
51B
102
}
330
51B
100
AcDbDictionary
281
     1
  3
ACDB_ANNOTATIONSCALES
350
51D
  0
DICTIONARY
  5
521
102
{ACAD_REACTORS
330
520
102
}
330
520
100
AcDbDictionary
281
     1
  3
ACDB_ANNOTATIONSCALES
350
522
  0
DICTIONARY
  5
526
102
{ACAD_REACTORS
330
525
102
}
330
525
100
AcDbDictionary
281
     1
  3
ACDB_ANNOTATIONSCALES
350
527
  0
DICTIONARY
  5
52B
102
{ACAD_REACTORS
330
52A
102
}
330
52A
100
AcDbDictionary
281
     1
  3
ACDB_ANNOTATIONSCALES
350
52C
  0
DICTIONARY
  5
530
102
{ACAD_REACTORS
330
52F
102
}
330
52F
100
AcDbDictionary
281
     1
  3
ACDB_ANNOTATIONSCALES
350
531
  0
DICTIONARY
  5
53A
102
{ACAD_REACTORS
330
539
102
}
330
539
100
AcDbDictionary
281
     1
  3
ACDB_ANNOTATIONSCALES
350
53B
  0
DICTIONARY
  5
53F
102
{ACAD_REACTORS
330
53E
102
}
330
53E
100
AcDbDictionary
281
     1
  3
ACDB_ANNOTATIONSCALES
350
540
  0
DICTIONARY
  5
544
102
{ACAD_REACTORS
330
543
102
}
330
543
100
AcDbDictionary
281
     1
  3
ACDB_ANNOTATIONSCALES
350
545
  0
DICTIONARY
  5
54C
102
{ACAD_REACTORS
330
54B
102
}
330
54B
100
AcDbDictionary
281
     1
  3
ACDB_ANNOTATIONSCALES
350
54D
  0
DICTIONARY
  5
551
102
{ACAD_REACTORS
330
550
102
}
330
550
100
AcDbDictionary
281
     1
  3
ACDB_ANNOTATIONSCALES
350
552
  0
DICTIONARY
  5
556
102
{ACAD_REACTORS
330
555
102
}
330
555
100
AcDbDictionary
281
     1
  3
ACDB_ANNOTATIONSCALES
350
557
  0
DICTIONARY
  5
55B
102
{ACAD_REACTORS
330
55A
102
}
330
55A
100
AcDbDictionary
281
     1
  3
ACDB_ANNOTATIONSCALES
350
55C
  0
DICTIONARY
  5
560
102
{ACAD_REACTORS
330
55F
102
}
330
55F
100
AcDbDictionary
281
     1
  3
ACDB_ANNOTATIONSCALES
350
561
  0
DICTIONARY
  5
56A
102
{ACAD_REACTORS
330
569
102
}
330
569
100
AcDbDictionary
281
     1
  3
ACDB_ANNOTATIONSCALES
350
56B
  0
DICTIONARY
  5
56F
102
{ACAD_REACTORS
330
56E
102
}
330
56E
100
AcDbDictionary
281
     1
  3
ACDB_ANNOTATIONSCALES
350
570
  0
DICTIONARY
  5
574
102
{ACAD_REACTORS
330
573
102
}
330
573
100
AcDbDictionary
281
     1
  3
ACDB_ANNOTATIONSCALES
350
575
  0
DICTIONARY
  5
579
102
{ACAD_REACTORS
330
578
102
}
330
578
100
AcDbDictionary
281
     1
  3
ACDB_ANNOTATIONSCALES
350
57A
  0
DICTIONARY
  5
57E
102
{ACAD_REACTORS
330
57D
102
}
330
57D
100
AcDbDictionary
281
     1
  3
ACDB_ANNOTATIONSCALES
350
57F
  0
DICTIONARY
  5
583
102
{ACAD_REACTORS
330
582
102
}
330
582
100
AcDbDictionary
281
     1
  3
ACDB_ANNOTATIONSCALES
350
584
  0
DICTIONARY
  5
588
102
{ACAD_REACTORS
330
587
102
}
330
587
100
AcDbDictionary
281
     1
  3
ACDB_ANNOTATIONSCALES
350
589
  0
DICTIONARY
  5
58D
102
{ACAD_REACTORS
330
58C
102
}
330
58C
100
AcDbDictionary
281
     1
  3
ACDB_ANNOTATIONSCALES
350
58E
  0
DICTIONARY
  5
592
102
{ACAD_REACTORS
330
591
102
}
330
591
100
AcDbDictionary
281
     1
  3
ACDB_ANNOTATIONSCALES
350
593
  0
DICTIONARY
  5
597
102
{ACAD_REACTORS
330
596
102
}
330
596
100
AcDbDictionary
281
     1
  3
ACDB_ANNOTATIONSCALES
350
598
  0
DICTIONARY
  5
59C
102
{ACAD_REACTORS
330
59B
102
}
330
59B
100
AcDbDictionary
281
     1
  3
ACDB_ANNOTATIONSCALES
350
59D
  0
DIMASSOC
  5
5D5
102
{ACAD_REACTORS
330
5D4
102
}
330
5D4
100
AcDbDimAssoc
330
5D3
 90
        1
 70
     0
 71
     0
  1
AcDbOsnapPointRef
 72
     6
331
5C4
 73
     2
 91
        0
 40
1.0
 10
0.0
 20
0.0
 30
0.0
332
5C7
 74
     2
 92
        0
 75
     0
  0
DICTIONARY
  5
5D6
102
{ACAD_REACTORS
330
5D4
102
}
330
5D4
100
AcDbDictionary
281
     1
  3
ACDB_ANNOTATIONSCALES
350
5D7
  0
DICTIONARY
  5
5DB
102
{ACAD_REACTORS
330
5DA
102
}
330
5DA
100
AcDbDictionary
281
     1
  3
ACDB_ANNOTATIONSCALES
350
5DC
  0
DIMASSOC
  5
5E6
102
{ACAD_REACTORS
330
5E5
102
}
330
5E5
100
AcDbDimAssoc
330
5E4
 90
        2
 70
     0
 71
     0
  1
AcDbOsnapPointRef
 72
     1
331
5C6
 73
     2
 91
        0
 40
1.0
 10
0.0
 20
0.0
 30
2.000000000000000E+50
 75
     0
  0
DICTIONARY
  5
5E7
102
{ACAD_REACTORS
330
5E5
102
}
330
5E5
100
AcDbDictionary
281
     1
  3
ACDB_ANNOTATIONSCALES
350
5E8
  0
DIMASSOC
  5
5EC
102
{ACAD_REACTORS
330
5EB
102
}
330
5EB
100
AcDbDimAssoc
330
5EA
 90
        2
 70
     0
 71
     0
  1
AcDbOsnapPointRef
 72
    13
331
5A0
 73
     2
 91
        0
 40
0.0
 10
0.0
 20
0.0
 30
2.000000000000000E+50
 75
     0
  0
DICTIONARY
  5
5ED
102
{ACAD_REACTORS
330
5EB
102
}
330
5EB
100
AcDbDictionary
281
     1
  3
ACDB_ANNOTATIONSCALES
350
5EE
  0
DIMASSOC
  5
5F2
102
{ACAD_REACTORS
330
5F1
102
}
330
5F1
100
AcDbDimAssoc
330
5F0
 90
        1
 70
     0
 71
     0
  1
AcDbOsnapPointRef
 72
    13
331
5AF
 73
     2
 91
        0
 40
0.0
 10
0.0
 20
0.0
 30
2.000000000000000E+50
 75
     0
  0
DICTIONARY
  5
5F3
102
{ACAD_REACTORS
330
5F1
102
}
330
5F1
100
AcDbDictionary
281
     1
  3
ACDB_ANNOTATIONSCALES
350
5F4
  0
DIMASSOC
  5
5F8
102
{ACAD_REACTORS
330
5F7
102
}
330
5F7
100
AcDbDimAssoc
330
5F6
 90
        1
 70
     0
 71
     0
  1
AcDbOsnapPointRef
 72
     1
331
5B6
 73
     2
 91
        0
 40
1.0
 10
0.0
 20
0.0
 30
2.000000000000000E+50
 75
     0
  0
DICTIONARY
  5
5F9
102
{ACAD_REACTORS
330
5F7
102
}
330
5F7
100
AcDbDictionary
281
     1
  3
ACDB_ANNOTATIONSCALES
350
5FA
  0
DICTIONARY
  5
5FE
102
{ACAD_REACTORS
330
5FD
102
}
330
5FD
100
AcDbDictionary
281
     1
  3
ACDB_ANNOTATIONSCALES
350
5FF
  0
DICTIONARY
  5
610
102
{ACAD_REACTORS
330
60F
102
}
330
60F
100
AcDbDictionary
281
     1
  3
ACDB_ANNOTATIONSCALES
350
611
  0
DIMASSOC
  5
615
102
{ACAD_REACTORS
330
614
102
}
330
614
100
AcDbDimAssoc
330
613
 90
        3
 70
     0
 71
     0
  1
AcDbOsnapPointRef
 72
     1
331
607
 73
     2
 91
        0
 40
7.337506493128322
 10
0.0
 20
0.0
 30
2.000000000000000E+50
 75
     0
  1
AcDbOsnapPointRef
 72
     6
331
609
 73
     2
 91
        0
 40
1.0
 10
0.0
 20
0.0
 30
0.0
332
607
 74
     2
 92
        0
 75
     0
  0
DICTIONARY
  5
616
102
{ACAD_REACTORS
330
614
102
}
330
614
100
AcDbDictionary
281
     1
  3
ACDB_ANNOTATIONSCALES
350
617
  0
DICTIONARY
  5
627
102
{ACAD_REACTORS
330
626
102
}
330
626
100
AcDbDictionary
281
     1
  3
ACDB_ANNOTATIONSCALES
350
628
  0
ACDBDETAILVIEWSTYLE
  5
1AC
102
{ACAD_XDICTIONARY
360
862
102
}
102
{ACAD_REACTORS
330
1AB
102
}
330
1AB
100
AcDbModelDocViewStyle
 70
     0
  3
Imperial24
290
     0
100
AcDbDetailViewStyle
 70
     0
 71
     0
 90
        3
 71
     1
340
11
 40
0.24
340
0
 40
0.24
300

 40
0.36
280
     3
 71
     2
340
16
 90
       25
 71
     3
340
11
 40
0.24
 90
        1
 40
0.75
 90
        1
300
%<\AcVar ViewType \f "%tc1">% %<\AcVar ViewDetailId>%\PSCALE %<\AcVar ViewScale \f "%sn">%
 71
     4
340
16
 90
       25
340
16
 90
       25
280
     0
  0
LAYOUT
  5
22
102
{ACAD_XDICTIONARY
360
829
102
}
102
{ACAD_REACTORS
330
1A
102
}
330
1A
100
AcDbPlotSettings
  1

  2
none_device
  4
ANSI_A_(8.50_x_11.00_Inches)
  6

 40
6.349999904632567
 41
19.04999923706055
 42
6.350006103515625
 43
19.04998779296875
 44
215.8999938964844
 45
279.3999938964844
 46
0.0
 47
0.0
 48
0.0
 49
0.0
140
0.0
141
0.0
142
1.0
143
2.584895464708373
 70
 11952
 72
     0
 73
     1
 74
     0
  7

 75
     0
147
0.3868628397755418
148
0.0
149
0.0
100
AcDbLayout
  1
Model
 70
     1
 71
     0
 10
0.0
 20
0.0
 11
12.0
 21
9.0
 12
0.0
 22
0.0
 32
0.0
 14
0.0
 24
0.0
 34
0.0
 15
0.0
 25
0.0
 35
0.0
146
0.0
 13
0.0
 23
0.0
 33
0.0
 16
1.0
 26
0.0
 36
0.0
 17
0.0
 27
1.0
 37
0.0
 76
     0
330
1F
331
94
  0
LAYOUT
  5
59
102
{ACAD_XDICTIONARY
360
82B
102
}
102
{ACAD_REACTORS
330
1A
102
}
330
1A
100
AcDbPlotSettings
  1

  2
None
  4

  6

 40
0.0
 41
0.0
 42
0.0
 43
0.0
 44
0.0
 45
0.0
 46
0.0
 47
0.0
 48
0.0
 49
0.0
140
0.0
141
0.0
142
1.0
143
1.0
 70
   688
 72
     0
 73
     0
 74
     5
  7

 75
    16
147
1.0
148
0.0
149
0.0
100
AcDbLayout
  1
配置1
 70
     1
 71
     1
 10
0.0
 20
0.0
 11
12.0
 21
9.0
 12
0.0
 22
0.0
 32
0.0
 14
0.0
 24
0.0
 34
0.0
 15
0.0
 25
0.0
 35
0.0
146
0.0
 13
0.0
 23
0.0
 33
0.0
 16
1.0
 26
0.0
 36
0.0
 17
0.0
 27
1.0
 37
0.0
 76
     0
330
58
  0
LAYOUT
  5
5E
102
{ACAD_XDICTIONARY
360
82D
102
}
102
{ACAD_REACTORS
330
1A
102
}
330
1A
100
AcDbPlotSettings
  1

  2
None
  4

  6

 40
0.0
 41
0.0
 42
0.0
 43
0.0
 44
0.0
 45
0.0
 46
0.0
 47
0.0
 48
0.0
 49
0.0
140
0.0
141
0.0
142
1.0
143
1.0
 70
   688
 72
     0
 73
     0
 74
     5
  7

 75
    16
147
1.0
148
0.0
149
0.0
100
AcDbLayout
  1
配置2
 70
     1
 71
     2
 10
0.0
 20
0.0
 11
12.0
 21
9.0
 12
0.0
 22
0.0
 32
0.0
 14
0.0
 24
0.0
 34
0.0
 15
0.0
 25
0.0
 35
0.0
146
0.0
 13
0.0
 23
0.0
 33
0.0
 16
1.0
 26
0.0
 36
0.0
 17
0.0
 27
1.0
 37
0.0
 76
     0
330
5D
  0
MATERIAL
  5
97
102
{ACAD_XDICTIONARY
360
188
102
}
102
{ACAD_REACTORS
330
72
102
}
330
72
100
AcDbMaterial
  1
ByBlock
  0
MATERIAL
  5
96
102
{ACAD_XDICTIONARY
360
186
102
}
102
{ACAD_REACTORS
330
72
102
}
330
72
100
AcDbMaterial
  1
ByLayer
  0
MATERIAL
  5
98
102
{ACAD_XDICTIONARY
360
110
102
}
102
{ACAD_REACTORS
330
72
102
}
330
72
100
AcDbMaterial
  1
Global
 43
0.0208000000566244
 43
0.0
 43
0.0
 43
0.0
 43
0.0
 43
0.0208000000566244
 43
0.0
 43
0.0
 43
0.0
 43
0.0
 43
1.0
 43
0.0
 43
0.0
 43
0.0
 43
0.0
 43
1.0
 49
0.0208000000566244
 49
0.0
 49
0.0
 49
0.0
 49
0.0
 49
0.0208000000566244
 49
0.0
 49
0.0
 49
0.0
 49
0.0
 49
1.0
 49
0.0
 49
0.0
 49
0.0
 49
0.0
 49
1.0
142
0.0208000000566244
142
0.0
142
0.0
142
0.0
142
0.0
142
0.0208000000566244
142
0.0
142
0.0
142
0.0
142
0.0
142
1.0
142
0.0
142
0.0
142
0.0
142
0.0
142
1.0
144
0.0208000000566244
144
0.0
144
0.0
144
0.0
144
0.0
144
0.0208000000566244
144
0.0
144
0.0
144
0.0
144
0.0
144
1.0
144
0.0
144
0.0
144
0.0
144
0.0
144
1.0
1001
ACAD
1070
    -1
1070
     3
1070
     0
1000

1071
        0
1070
     0
  0
MLEADERSTYLE
  5
D8
102
{ACAD_REACTORS
330
D7
102
}
330
D7
100
AcDbMLeaderStyle
170
     2
171
     1
172
     0
 90
        2
 40
0.0
 41
0.0
173
     1
 91
-1056964608
340
14
 92
       -2
290
     1
 42
0.09
291
     1
 43
0.36
  3
Standard
 44
0.18
300

342
11
174
     1
178
     1
175
     1
176
     0
 93
-1056964608
 45
0.18
292
     0
297
     0
 46
0.18
 94
-1056964608
 47
1.0
 49
1.0
140
1.0
293
     1
141
0.0
294
     1
177
     0
142
1.0
295
     0
296
     0
143
0.125
1001
ACAD_MLEADERVER
1070
     2
  0
MLEADERSTYLE
  5
E5
102
{ACAD_REACTORS
330
D7
102
}
330
D7
100
AcDbMLeaderStyle
170
     2
171
     1
172
     0
 90
        2
 40
0.0
 41
0.0
173
     1
 91
-1056964608
340
14
 92
       -2
290
     1
 42
0.09
291
     1
 43
0.36
  3
Standard
 44
0.18
300

342
11
174
     1
178
     1
175
     1
176
     0
 93
-1056964608
 45
0.18
292
     0
297
     0
 46
0.18
 94
-1056964608
 47
1.0
 49
1.0
140
1.0
293
     1
141
0.0
294
     1
177
     0
142
1.0
295
     0
296
     1
143
0.125
1001
ACAD_MLEADERVER
1070
     2
  0
MLINESTYLE
  5
18
102
{ACAD_REACTORS
330
17
102
}
330
17
100
AcDbMlineStyle
  2
STANDARD
 70
     0
  3

 62
   256
 51
90.0
 52
90.0
 71
     2
 49
0.5
 62
   256
  6
BYLAYER
 49
-0.5
 62
   256
  6
BYLAYER
  0
ACDBPLACEHOLDER
  5
F
102
{ACAD_REACTORS
330
E
102
}
330
E
  0
SCALE
  5
B7
102
{ACAD_REACTORS
330
B6
102
}
330
B6
100
AcDbScale
 70
     0
300
1:1
140
1.0
141
1.0
290
     1
  0
SCALE
  5
124
102
{ACAD_REACTORS
330
B6
102
}
330
B6
100
AcDbScale
 70
     0
300
1:2
140
1.0
141
2.0
290
     0
  0
SCALE
  5
125
102
{ACAD_REACTORS
330
B6
102
}
330
B6
100
AcDbScale
 70
     0
300
1:4
140
1.0
141
4.0
290
     0
  0
SCALE
  5
126
102
{ACAD_REACTORS
330
B6
102
}
330
B6
100
AcDbScale
 70
     0
300
1:5
140
1.0
141
5.0
290
     0
  0
SCALE
  5
127
102
{ACAD_REACTORS
330
B6
102
}
330
B6
100
AcDbScale
 70
     0
300
1:8
140
1.0
141
8.0
290
     0
  0
SCALE
  5
128
102
{ACAD_REACTORS
330
B6
102
}
330
B6
100
AcDbScale
 70
     0
300
1:10
140
1.0
141
10.0
290
     0
  0
SCALE
  5
129
102
{ACAD_REACTORS
330
B6
102
}
330
B6
100
AcDbScale
 70
     0
300
1:16
140
1.0
141
16.0
290
     0
  0
SCALE
  5
12A
102
{ACAD_REACTORS
330
B6
102
}
330
B6
100
AcDbScale
 70
     0
300
1:20
140
1.0
141
20.0
290
     0
  0
SCALE
  5
12B
102
{ACAD_REACTORS
330
B6
102
}
330
B6
100
AcDbScale
 70
     0
300
1:30
140
1.0
141
30.0
290
     0
  0
SCALE
  5
12C
102
{ACAD_REACTORS
330
B6
102
}
330
B6
100
AcDbScale
 70
     0
300
1:40
140
1.0
141
40.0
290
     0
  0
SCALE
  5
12D
102
{ACAD_REACTORS
330
B6
102
}
330
B6
100
AcDbScale
 70
     0
300
1:50
140
1.0
141
50.0
290
     0
  0
SCALE
  5
12E
102
{ACAD_REACTORS
330
B6
102
}
330
B6
100
AcDbScale
 70
     0
300
1:100
140
1.0
141
100.0
290
     0
  0
SCALE
  5
12F
102
{ACAD_REACTORS
330
B6
102
}
330
B6
100
AcDbScale
 70
     0
300
2:1
140
2.0
141
1.0
290
     0
  0
SCALE
  5
130
102
{ACAD_REACTORS
330
B6
102
}
330
B6
100
AcDbScale
 70
     0
300
4:1
140
4.0
141
1.0
290
     0
  0
SCALE
  5
131
102
{ACAD_REACTORS
330
B6
102
}
330
B6
100
AcDbScale
 70
     0
300
8:1
140
8.0
141
1.0
290
     0
  0
SCALE
  5
132
102
{ACAD_REACTORS
330
B6
102
}
330
B6
100
AcDbScale
 70
     0
300
10:1
140
10.0
141
1.0
290
     0
  0
SCALE
  5
133
102
{ACAD_REACTORS
330
B6
102
}
330
B6
100
AcDbScale
 70
     0
300
100:1
140
100.0
141
1.0
290
     0
  0
SCALE
  5
134
102
{ACAD_REACTORS
330
B6
102
}
330
B6
100
AcDbScale
 70
     0
300
1/128" = 1'-0"
140
0.0078125
141
12.0
290
     0
  0
SCALE
  5
135
102
{ACAD_REACTORS
330
B6
102
}
330
B6
100
AcDbScale
 70
     0
300
1/64" = 1'-0"
140
0.015625
141
12.0
290
     0
  0
SCALE
  5
136
102
{ACAD_REACTORS
330
B6
102
}
330
B6
100
AcDbScale
 70
     0
300
1/32" = 1'-0"
140
0.03125
141
12.0
290
     0
  0
SCALE
  5
137
102
{ACAD_REACTORS
330
B6
102
}
330
B6
100
AcDbScale
 70
     0
300
1/16" = 1'-0"
140
0.0625
141
12.0
290
     0
  0
SCALE
  5
138
102
{ACAD_REACTORS
330
B6
102
}
330
B6
100
AcDbScale
 70
     0
300
3/32" = 1'-0"
140
0.09375
141
12.0
290
     0
  0
SCALE
  5
139
102
{ACAD_REACTORS
330
B6
102
}
330
B6
100
AcDbScale
 70
     0
300
1/8" = 1'-0"
140
0.125
141
12.0
290
     0
  0
SCALE
  5
13A
102
{ACAD_REACTORS
330
B6
102
}
330
B6
100
AcDbScale
 70
     0
300
3/16" = 1'-0"
140
0.1875
141
12.0
290
     0
  0
SCALE
  5
13B
102
{ACAD_REACTORS
330
B6
102
}
330
B6
100
AcDbScale
 70
     0
300
1/4" = 1'-0"
140
0.25
141
12.0
290
     0
  0
SCALE
  5
13C
102
{ACAD_REACTORS
330
B6
102
}
330
B6
100
AcDbScale
 70
     0
300
3/8" = 1'-0"
140
0.375
141
12.0
290
     0
  0
SCALE
  5
13D
102
{ACAD_REACTORS
330
B6
102
}
330
B6
100
AcDbScale
 70
     0
300
1/2" = 1'-0"
140
0.5
141
12.0
290
     0
  0
SCALE
  5
13E
102
{ACAD_REACTORS
330
B6
102
}
330
B6
100
AcDbScale
 70
     0
300
3/4" = 1'-0"
140
0.75
141
12.0
290
     0
  0
SCALE
  5
13F
102
{ACAD_REACTORS
330
B6
102
}
330
B6
100
AcDbScale
 70
     0
300
1" = 1'-0"
140
1.0
141
12.0
290
     0
  0
SCALE
  5
140
102
{ACAD_REACTORS
330
B6
102
}
330
B6
100
AcDbScale
 70
     0
300
1-1/2" = 1'-0"
140
1.5
141
12.0
290
     0
  0
SCALE
  5
141
102
{ACAD_REACTORS
330
B6
102
}
330
B6
100
AcDbScale
 70
     0
300
3" = 1'-0"
140
3.0
141
12.0
290
     0
  0
SCALE
  5
142
102
{ACAD_REACTORS
330
B6
102
}
330
B6
100
AcDbScale
 70
     0
300
6" = 1'-0"
140
6.0
141
12.0
290
     0
  0
SCALE
  5
143
102
{ACAD_REACTORS
330
B6
102
}
330
B6
100
AcDbScale
 70
     0
300
1'-0" = 1'-0"
140
12.0
141
12.0
290
     0
  0
ACDBSECTIONVIEWSTYLE
  5
1AA
102
{ACAD_XDICTIONARY
360
860
102
}
102
{ACAD_REACTORS
330
1A8
102
}
330
1A8
100
AcDbModelDocViewStyle
 70
     0
  3
Imperial24
290
     0
100
AcDbSectionViewStyle
 70
     0
 71
     0
 90
       78
 71
     1
340
11
 40
0.24
340
0
340
0
 40
0.24
300
I, O, Q, S, X, Z
 40
0.48
 90
        3
 40
0.18
 90
        1
 71
     2
340
16
 90
       25
340
16
 90
       50
 40
0.24
 40
0.0
 40
0.24
 71
     3
340
11
 40
0.24
 90
        1
 40
0.75
 90
        1
300
%<\AcVar ViewType \f "%tc1">% %<\AcVar ViewSectionStartId>%-%<\AcVar ViewSectionEndId>%\PSCALE %<\AcVar ViewScale \f "%sn">%
 71
     4
300
ANSI31
 40
1.0
 90
        0
290
     0
290
     0
 90
        6
 40
0.0
 40
1.570796326794896
 40
0.2617993877991494
 40
1.308996938995747
 40
-0.2617993877991494
 40
1.832595714594045
  0
TABLESTYLE
  5
87
102
{ACAD_XDICTIONARY
360
104
102
}
102
{ACAD_REACTORS
330
86
102
}
330
86
100
AcDbTableStyle
  3
Standard
 70
     0
 71
     0
 40
0.06
 41
0.06
280
     0
281
     0
  7
Standard
140
0.18
170
     2
 62
     0
 63
     7
283
     0
274
    -2
284
     1
 64
     0
275
    -2
285
     1
 65
     0
276
    -2
286
     1
 66
     0
277
    -2
287
     1
 67
     0
278
    -2
288
     1
 68
     0
279
    -2
289
     1
 69
     0
  7
Standard
140
0.25
170
     5
 62
     0
 63
     7
283
     0
274
    -2
284
     1
 64
     0
275
    -2
285
     1
 65
     0
276
    -2
286
     1
 66
     0
277
    -2
287
     1
 67
     0
278
    -2
288
     1
 68
     0
279
    -2
289
     1
 69
     0
  7
Standard
140
0.18
170
     5
 62
     0
 63
     7
283
     0
274
    -2
284
     1
 64
     0
275
    -2
285
     1
 65
     0
276
    -2
286
     1
 66
     0
277
    -2
287
     1
 67
     0
278
    -2
288
     1
 68
     0
279
    -2
289
     1
 69
     0
  0
VISUALSTYLE
  5
9F
102
{ACAD_XDICTIONARY
360
83A
102
}
102
{ACAD_REACTORS
330
99
102
}
330
99
100
AcDbVisualStyle
  2

 70
     4
 71
     0
 72
     2
 73
     1
 90
        0
 40
-0.6
 41
-30.0
 62
     5
 63
     7
 74
     1
 91
        4
 64
     7
 65
   257
 75
     1
175
     1
 42
1.0
 92
        0
 66
   257
 43
1.0
 76
     1
 77
     6
 78
     2
 67
     7
 79
     5
170
     0
171
     0
290
     0
174
     0
 93
        1
 44
0.0
173
     0
291
     0
 45
0.0
1001
ACAD
1000
AcDbSavedByObjectVersion
1070
     0
  0
VISUALSTYLE
  5
263
102
{ACAD_XDICTIONARY
360
864
102
}
102
{ACAD_REACTORS
330
99
102
}
330
99
100
AcDbVisualStyle
  2

 70
     5
 71
     0
 72
     2
 73
     0
 90
        0
 40
-0.6
 41
-30.0
 62
     5
 63
     7
 74
     1
 91
        4
 64
     7
 65
   257
 75
     1
175
     1
 42
1.0
 92
        0
 66
   257
 43
1.0
 76
     1
 77
     6
 78
     2
 67
     7
 79
     5
170
     0
171
     0
290
     0
174
     0
 93
        1
 44
0.0
173
     0
291
     0
 45
0.0
1001
ACAD
1000
AcDbSavedByObjectVersion
1070
     0
  0
VISUALSTYLE
  5
9E
102
{ACAD_XDICTIONARY
360
838
102
}
102
{ACAD_REACTORS
330
99
102
}
330
99
100
AcDbVisualStyle
  2

 70
     7
 71
     1
 72
     0
 73
     1
 90
        0
 40
-0.6
 41
-30.0
 62
     5
 63
     7
 74
     0
 91
        4
 64
     7
 65
   257
 75
     1
175
     1
 42
1.0
 92
        8
 66
     7
 43
1.0
 76
     1
 77
     6
 78
     2
 67
     7
 79
     5
170
     0
171
     0
290
     0
174
     0
 93
        1
 44
0.0
173
     0
291
     1
 45
0.0
1001
ACAD
1000
AcDbSavedByObjectVersion
1070
     0
  0
VISUALSTYLE
  5
A5
102
{ACAD_XDICTIONARY
360
846
102
}
102
{ACAD_REACTORS
330
99
102
}
330
99
100
AcDbVisualStyle
  2

 70
    12
 71
     2
 72
     2
 73
     1
 90
        0
 40
-0.6
 41
-30.0
 62
     5
 63
     7
 74
     1
 91
        4
 64
     7
 65
   257
 75
     1
175
     1
 42
1.0
 92
        8
 66
     7
 43
1.0
 76
     1
 77
     6
 78
     2
 67
     7
 79
     5
170
     0
171
     0
290
     0
174
     0
 93
        1
 44
50.0
173
     0
291
     1
 45
0.0
1001
ACAD
1000
AcDbSavedByObjectVersion
1070
     0
  0
VISUALSTYLE
  5
A9
102
{ACAD_XDICTIONARY
360
84E
102
}
102
{ACAD_REACTORS
330
99
102
}
330
99
100
AcDbVisualStyle
  2

 70
    16
 71
     2
 72
     2
 73
     3
 90
        0
 40
-0.6
 41
-30.0
 62
     5
 63
     8
 74
     1
 91
        4
 64
     7
 65
   257
 75
     1
175
     1
 42
1.0
 92
        8
 66
     8
 43
1.0
 76
     1
 77
     6
 78
     2
 67
     7
 79
     5
170
     0
171
     0
290
     0
174
     0
 93
        1
 44
0.0
173
     0
291
     1
 45
0.0
1001
ACAD
1000
AcDbSavedByObjectVersion
1070
     0
  0
VISUALSTYLE
  5
A2
102
{ACAD_XDICTIONARY
360
840
102
}
102
{ACAD_REACTORS
330
99
102
}
330
99
100
AcDbVisualStyle
  2

 70
     9
 71
     3
 72
     2
 73
     1
 90
        0
 40
-0.6
 41
-30.0
 62
     5
 63
     7
 74
     2
 91
        2
 64
     7
 65
   257
 75
     1
175
     1
 42
40.0
 92
        8
 66
     7
 43
1.0
 76
     1
 77
     6
 78
     2
 67
     7
 79
     3
170
     0
171
     0
290
     0
174
     0
 93
        1
 44
0.0
173
     0
291
     0
 45
0.0
1001
ACAD
1000
AcDbSavedByObjectVersion
1070
     0
  0
VISUALSTYLE
  5
A4
102
{ACAD_XDICTIONARY
360
844
102
}
102
{ACAD_REACTORS
330
99
102
}
330
99
100
AcDbVisualStyle
  2

 70
    11
 71
     2
 72
     2
 73
     1
 90
        0
 40
-0.6
 41
-30.0
 62
     5
 63
     7
 74
     1
 91
        4
 64
     7
 65
   257
 75
     1
175
     1
 42
1.0
 92
        8
 66
     7
 43
1.0
 76
     1
 77
     6
 78
     2
 67
     7
 79
     5
170
     0
171
     0
290
     0
174
     0
 93
        1
 44
-50.0
173
     0
291
     1
 45
0.0
1001
ACAD
1000
AcDbSavedByObjectVersion
1070
     0
  0
VISUALSTYLE
  5
175
102
{ACAD_XDICTIONARY
360
854
102
}
102
{ACAD_REACTORS
330
99
102
}
330
99
100
AcDbVisualStyle
  2

 70
    22
 71
     2
 72
     2
 73
     0
 90
        0
 40
-0.6
 41
-30.0
 62
     5
 63
     7
 74
     1
 91
        4
 64
     7
 65
   257
 75
     1
175
     1
 42
1.0
 92
        8
 66
     7
 43
1.0
 76
     1
 77
     6
 78
     2
 67
     7
 79
     5
170
     0
171
     0
290
     0
174
     0
 93
        1
 44
0.0
173
     0
291
     1
 45
0.0
1001
ACAD
1000
AcDbSavedByObjectVersion
1070
     0
  0
VISUALSTYLE
  5
A8
102
{ACAD_XDICTIONARY
360
84C
102
}
102
{ACAD_REACTORS
330
99
102
}
330
99
100
AcDbVisualStyle
  2

 70
    15
 71
     2
 72
     2
 73
     1
 90
        0
 40
-0.6
 41
-30.0
 62
     5
 63
     7
 74
     1
 91
        4
 64
     7
 65
   257
 75
     1
175
     1
 42
1.0
 92
        8
 66
     7
 43
1.0
 76
     1
 77
     6
 78
     2
 67
     7
 79
     5
170
     0
171
     0
290
     0
174
     0
 93
        1
 44
0.0
173
     0
291
     1
 45
0.0
1001
ACAD
1000
AcDbSavedByObjectVersion
1070
     0
  0
VISUALSTYLE
  5
9A
102
{ACAD_XDICTIONARY
360
830
102
}
102
{ACAD_REACTORS
330
99
102
}
330
99
100
AcDbVisualStyle
  2

 70
     0
 71
     2
 72
     1
 73
     1
 90
        2
 40
-0.6
 41
30.0
 62
     5
 63
     7
 74
     0
 91
        0
 64
     7
 65
   257
 75
     1
175
     1
 42
1.0
 92
        8
 66
     7
 43
1.0
 76
     1
 77
     6
 78
     2
 67
     7
 79
     5
170
     0
171
     0
290
     0
174
     0
 93
       13
 44
0.0
173
     0
291
     1
 45
0.0
1001
ACAD
1000
AcDbSavedByObjectVersion
1070
     0
  0
VISUALSTYLE
  5
9B
102
{ACAD_XDICTIONARY
360
832
102
}
102
{ACAD_REACTORS
330
99
102
}
330
99
100
AcDbVisualStyle
  2

 70
     1
 71
     2
 72
     1
 73
     1
 90
        2
 40
-0.6
 41
30.0
 62
     5
 63
     7
 74
     1
 91
        0
 64
     7
 65
   257
 75
     1
175
     1
 42
1.0
 92
        0
 66
   257
 43
1.0
 76
     1
 77
     6
 78
     2
 67
     7
 79
     5
170
     0
171
     0
290
     0
174
     0
 93
       13
 44
0.0
173
     0
291
     1
 45
0.0
1001
ACAD
1000
AcDbSavedByObjectVersion
1070
     0
  0
VISUALSTYLE
  5
9C
102
{ACAD_XDICTIONARY
360
834
102
}
102
{ACAD_REACTORS
330
99
102
}
330
99
100
AcDbVisualStyle
  2

 70
     2
 71
     2
 72
     2
 73
     1
 90
        2
 40
-0.6
 41
30.0
 62
     5
 63
     7
 74
     0
 91
        0
 64
     7
 65
   257
 75
     1
175
     1
 42
1.0
 92
        0
 66
     7
 43
1.0
 76
     1
 77
     6
 78
     2
 67
     7
 79
     5
170
     0
171
     0
290
     0
174
     0
 93
       13
 44
0.0
173
     0
291
     1
 45
0.0
1001
ACAD
1000
AcDbSavedByObjectVersion
1070
     0
  0
VISUALSTYLE
  5
9D
102
{ACAD_XDICTIONARY
360
836
102
}
102
{ACAD_REACTORS
330
99
102
}
330
99
100
AcDbVisualStyle
  2

 70
     3
 71
     2
 72
     2
 73
     1
 90
        2
 40
-0.6
 41
30.0
 62
     5
 63
     7
 74
     1
 91
        0
 64
     7
 65
   257
 75
     1
175
     1
 42
1.0
 92
        0
 66
   257
 43
1.0
 76
     1
 77
     6
 78
     2
 67
     7
 79
     5
170
     0
171
     0
290
     0
174
     0
 93
       13
 44
0.0
173
     0
291
     1
 45
0.0
1001
ACAD
1000
AcDbSavedByObjectVersion
1070
     0
  0
VISUALSTYLE
  5
A1
102
{ACAD_XDICTIONARY
360
83E
102
}
102
{ACAD_REACTORS
330
99
102
}
330
99
100
AcDbVisualStyle
  2

 70
     6
 71
     1
 72
     2
 73
     2
 90
        0
 40
-0.6
 41
-30.0
 62
     5
 63
     7
 74
     2
 91
        2
 64
     7
 65
   257
 75
     2
175
     1
 42
40.0
 92
        0
 66
   257
 43
1.0
 76
     1
 77
     6
 78
     2
 67
     7
 79
     3
170
     0
171
     0
290
     0
174
     0
 93
        1
 44
0.0
173
     0
291
     0
 45
0.0
1001
ACAD
1000
AcDbSavedByObjectVersion
1070
     0
  0
VISUALSTYLE
  5
173
102
{ACAD_XDICTIONARY
360
850
102
}
102
{ACAD_REACTORS
330
99
102
}
330
99
100
AcDbVisualStyle
  2

 70
    20
 71
     2
 72
     2
 73
     0
 90
        0
 40
-0.6
 41
-30.0
 62
     5
 63
     7
 74
     1
 91
        4
 64
     7
 65
   257
 75
     1
175
     1
 42
1.0
 92
       10
 66
     7
 43
1.0
 76
     1
 77
     6
 78
     2
 67
     7
 79
     5
170
     0
171
     0
290
     0
174
     0
 93
        1
 44
0.0
173
     0
291
     1
 45
0.0
1001
ACAD
1000
AcDbSavedByObjectVersion
1070
     0
  0
VISUALSTYLE
  5
A7
102
{ACAD_XDICTIONARY
360
84A
102
}
102
{ACAD_REACTORS
330
99
102
}
330
99
100
AcDbVisualStyle
  2

 70
    14
 71
     2
 72
     2
 73
     1
 90
        0
 40
-0.6
 41
-30.0
 62
     5
 63
     7
 74
     1
 91
        4
 64
     7
 65
   257
 75
     7
175
     7
 42
1.0
 92
        8
 66
     7
 43
1.0
 76
     1
 77
     6
 78
     2
 67
     7
 79
     5
170
     0
171
     0
290
     0
174
     0
 93
        1
 44
0.0
173
     0
291
     1
 45
0.0
1001
ACAD
1000
AcDbSavedByObjectVersion
1070
     0
  0
VISUALSTYLE
  5
174
102
{ACAD_XDICTIONARY
360
852
102
}
102
{ACAD_REACTORS
330
99
102
}
330
99
100
AcDbVisualStyle
  2

 70
    21
 71
     2
 72
     2
 73
     0
 90
        0
 40
-0.6
 41
-30.0
 62
     5
 63
     7
 74
     1
 91
        4
 64
     7
 65
   257
 75
     1
175
     1
 42
1.0
 92
        9
 66
     7
 43
1.0
 76
     1
 77
     6
 78
     2
 67
     7
 79
     5
170
     0
171
     0
290
     0
174
     0
 93
        1
 44
0.0
173
     0
291
     1
 45
0.0
1001
ACAD
1000
AcDbSavedByObjectVersion
1070
     0
  0
VISUALSTYLE
  5
A3
102
{ACAD_XDICTIONARY
360
842
102
}
102
{ACAD_REACTORS
330
99
102
}
330
99
100
AcDbVisualStyle
  2

 70
     8
 71
     2
 72
     3
 73
     0
 90
        2
 40
-0.6
 41
30.0
 62
     5
 63
     7
 74
     0
 91
        0
 64
     7
 65
   257
 75
     1
175
     1
 42
1.0
 92
        8
 66
   257
 43
1.0
 76
     1
 77
     6
 78
     2
 67
     7
 79
     3
170
     0
171
     0
290
     0
174
     0
 93
       13
 44
0.0
173
     0
291
     0
 45
0.0
1001
ACAD
1000
AcDbSavedByObjectVersion
1070
     0
  0
VISUALSTYLE
  5
182
102
{ACAD_XDICTIONARY
360
85E
102
}
102
{ACAD_REACTORS
330
99
102
}
330
99
100
AcDbVisualStyle
  2

 70
    27
 71
     2
 72
     2
 73
     1
 90
        2
 40
-0.6
 41
30.0
 62
     5
 63
     7
 74
     0
 91
        4
 64
     7
 65
   257
 75
     1
175
     1
 42
1.0
 92
        8
 66
   257
 43
1.0
 76
     1
 77
     6
 78
     2
 67
     8
 79
     3
170
     0
171
     0
290
     0
174
     0
 93
        5
 44
0.0
173
     0
291
     0
 45
0.0
1001
ACAD
1000
AcDbSavedByObjectVersion
1070
     0
  0
VISUALSTYLE
  5
181
102
{ACAD_XDICTIONARY
360
85C
102
}
102
{ACAD_REACTORS
330
99
102
}
330
99
100
AcDbVisualStyle
  2

 70
    26
 71
     2
 72
     2
 73
     1
 90
        2
 40
-0.6
 41
30.0
 62
     5
 63
     7
 74
     1
 91
       10
 64
     7
 65
   257
 75
     2
175
     1
 42
1.0
 92
        8
 66
   257
 43
1.0
 76
     1
 77
     6
 78
     2
 67
     7
 79
     3
170
     0
171
     0
290
     0
174
     0
 93
        5
 44
0.0
173
     0
291
     0
 45
0.0
1001
ACAD
1000
AcDbSavedByObjectVersion
1070
     0
  0
VISUALSTYLE
  5
17E
102
{ACAD_XDICTIONARY
360
856
102
}
102
{ACAD_REACTORS
330
99
102
}
330
99
100
AcDbVisualStyle
  2

 70
    23
 71
     2
 72
     2
 73
     3
 90
        0
 40
-0.6
 41
-30.0
 62
     5
 63
     7
 74
     2
 91
        2
 64
     7
 65
     7
 75
     1
175
     1
 42
40.0
 92
        8
 66
     7
 43
1.0
 76
     1
 77
     6
 78
     2
 67
     7
 79
     3
170
     0
171
     0
290
     0
174
     0
 93
        1
 44
0.0
173
     0
291
     0
 45
0.0
1001
ACAD
1000
AcDbSavedByObjectVersion
1070
     0
  0
VISUALSTYLE
  5
17F
102
{ACAD_XDICTIONARY
360
858
102
}
102
{ACAD_REACTORS
330
99
102
}
330
99
100
AcDbVisualStyle
  2

 70
    24
 71
     1
 72
     2
 73
     2
 90
        0
 40
-0.6
 41
-30.0
 62
     5
 63
     7
 74
     2
 91
        2
 64
     7
 65
     7
 75
     1
175
     1
 42
40.0
 92
       11
 66
     7
 43
1.0
 76
     1
 77
     6
 78
     2
 67
     7
 79
     6
170
     0
171
     0
290
     0
174
     0
 93
        1
 44
0.0
173
     0
291
     0
 45
0.0
1001
ACAD
1000
AcDbSavedByObjectVersion
1070
     0
  0
VISUALSTYLE
  5
A6
102
{ACAD_XDICTIONARY
360
848
102
}
102
{ACAD_REACTORS
330
99
102
}
330
99
100
AcDbVisualStyle
  2

 70
    13
 71
     2
 72
     2
 73
     1
 90
        0
 40
-0.6
 41
-30.0
 62
     5
 63
     7
 74
     1
 91
        4
 64
     7
 65
   257
 75
     1
175
     1
 42
1.0
 92
       12
 66
     7
 43
1.0
 76
     1
 77
     6
 78
     2
 67
     7
 79
     5
170
     0
171
     0
290
     0
174
     0
 93
        1
 44
0.0
173
     0
291
     1
 45
0.0
1001
ACAD
1000
AcDbSavedByObjectVersion
1070
     0
  0
VISUALSTYLE
  5
A0
102
{ACAD_XDICTIONARY
360
83C
102
}
102
{ACAD_REACTORS
330
99
102
}
330
99
100
AcDbVisualStyle
  2

 70
     5
 71
     0
 72
     2
 73
     0
 90
        0
 40
-0.6
 41
-30.0
 62
     5
 63
     7
 74
     1
 91
        4
 64
     7
 65
   257
 75
     1
175
     1
 42
1.0
 92
        0
 66
   257
 43
1.0
 76
     1
 77
     6
 78
     2
 67
     7
 79
     3
170
     0
171
     0
290
     0
174
     0
 93
        1
 44
0.0
173
     0
291
     0
 45
0.0
1001
ACAD
1000
AcDbSavedByObjectVersion
1070
     0
  0
VISUALSTYLE
  5
180
102
{ACAD_XDICTIONARY
360
85A
102
}
102
{ACAD_REACTORS
330
99
102
}
330
99
100
AcDbVisualStyle
  2

 70
    25
 71
     2
 72
     2
 73
     1
 90
        1
 40
0.5
 41
-30.0
 62
     5
 63
     7
 74
     1
 91
        0
 64
     7
 65
   257
 75
     1
175
     1
 42
1.0
 92
        8
 66
     7
 43
1.0
 76
     1
 77
     6
 78
     2
 67
     7
 79
     3
170
     0
171
     0
290
     0
174
     0
 93
       13
 44
0.0
173
     0
291
     0
 45
0.0
1001
ACAD
1000
AcDbSavedByObjectVersion
1070
     0
  0
DICTIONARYVAR
  5
F0
102
{ACAD_REACTORS
330
66
102
}
330
66
100
DictionaryVariables
280
     0
  1
1:1
  0
DICTIONARYVAR
  5
EF
102
{ACAD_REACTORS
330
66
102
}
330
66
100
DictionaryVariables
280
     0
  1
STANDARD
  0
DICTIONARYVAR
  5
89
102
{ACAD_REACTORS
330
66
102
}
330
66
100
DictionaryVariables
280
     0
  1
STANDARD
  0
DICTIONARYVAR
  5
1B7
102
{ACAD_REACTORS
330
66
102
}
330
66
100
DictionaryVariables
280
     0
  1
Imperial24
  0
DICTIONARYVAR
  5
1B8
102
{ACAD_REACTORS
330
66
102
}
330
66
100
DictionaryVariables
280
     0
  1
Imperial24
  0
DICTIONARYVAR
  5
67
102
{ACAD_REACTORS
330
66
102
}
330
66
100
DictionaryVariables
280
     0
  1
2
  0
DICTIONARYVAR
  5
6B
102
{ACAD_REACTORS
330
66
102
}
330
66
100
DictionaryVariables
280
     0
  1
1
  0
DICTIONARYVAR
  5
771
102
{ACAD_REACTORS
330
66
102
}
330
66
100
DictionaryVariables
280
     0
  1
0
  0
DICTIONARYVAR
  5
14D
102
{ACAD_REACTORS
330
66
102
}
330
66
100
DictionaryVariables
280
     0
  1
0
  0
DICTIONARYVAR
  5
14E
102
{ACAD_REACTORS
330
66
102
}
330
66
100
DictionaryVariables
280
     0
  1
0
  0
DICTIONARYVAR
  5
76F
102
{ACAD_REACTORS
330
66
102
}
330
66
100
DictionaryVariables
280
     0
  1
2
  0
DICTIONARYVAR
  5
76E
102
{ACAD_REACTORS
330
66
102
}
330
66
100
DictionaryVariables
280
     0
  1
1
  0
DICTIONARYVAR
  5
770
102
{ACAD_REACTORS
330
66
102
}
330
66
100
DictionaryVariables
280
     0
  1
127
  0
DICTIONARYVAR
  5
822
102
{ACAD_REACTORS
330
66
102
}
330
66
100
DictionaryVariables
280
     0
  1
2
  0
VLO-VL
  5
1D3
102
{ACAD_REACTORS
330
1D2
102
}
330
1D2
100
vlo_VL
 90
   -64512
 91
       12
 92
        1
 40
2.5
300
(&VLO-R . 0)
  0
DICTIONARY
  5
481
102
{ACAD_REACTORS
330
480
102
}
330
480
100
AcDbDictionary
281
     1
  0
DICTIONARY
  5
486
102
{ACAD_REACTORS
330
485
102
}
330
485
100
AcDbDictionary
281
     1
  0
DICTIONARY
  5
48B
102
{ACAD_REACTORS
330
48A
102
}
330
48A
100
AcDbDictionary
281
     1
  0
DICTIONARY
  5
490
102
{ACAD_REACTORS
330
48F
102
}
330
48F
100
AcDbDictionary
281
     1
  0
DICTIONARY
  5
495
102
{ACAD_REACTORS
330
494
102
}
330
494
100
AcDbDictionary
281
     1
  0
DICTIONARY
  5
49A
102
{ACAD_REACTORS
330
499
102
}
330
499
100
AcDbDictionary
281
     1
  0
DICTIONARY
  5
49F
102
{ACAD_REACTORS
330
49E
102
}
330
49E
100
AcDbDictionary
281
     1
  0
DICTIONARY
  5
4A4
102
{ACAD_REACTORS
330
4A3
102
}
330
4A3
100
AcDbDictionary
281
     1
  0
DICTIONARY
  5
4A9
102
{ACAD_REACTORS
330
4A8
102
}
330
4A8
100
AcDbDictionary
281
     1
  0
DICTIONARY
  5
4AE
102
{ACAD_REACTORS
330
4AD
102
}
330
4AD
100
AcDbDictionary
281
     1
  0
DICTIONARY
  5
4B3
102
{ACAD_REACTORS
330
4B2
102
}
330
4B2
100
AcDbDictionary
281
     1
  0
DICTIONARY
  5
4B8
102
{ACAD_REACTORS
330
4B7
102
}
330
4B7
100
AcDbDictionary
281
     1
  0
DICTIONARY
  5
4BD
102
{ACAD_REACTORS
330
4BC
102
}
330
4BC
100
AcDbDictionary
281
     1
  0
DICTIONARY
  5
4C2
102
{ACAD_REACTORS
330
4C1
102
}
330
4C1
100
AcDbDictionary
281
     1
  0
DICTIONARY
  5
4C7
102
{ACAD_REACTORS
330
4C6
102
}
330
4C6
100
AcDbDictionary
281
     1
  0
DICTIONARY
  5
4CC
102
{ACAD_REACTORS
330
4CB
102
}
330
4CB
100
AcDbDictionary
281
     1
  0
DICTIONARY
  5
4D1
102
{ACAD_REACTORS
330
4D0
102
}
330
4D0
100
AcDbDictionary
281
     1
  0
DICTIONARY
  5
4D6
102
{ACAD_REACTORS
330
4D5
102
}
330
4D5
100
AcDbDictionary
281
     1
  0
DICTIONARY
  5
4DB
102
{ACAD_REACTORS
330
4DA
102
}
330
4DA
100
AcDbDictionary
281
     1
  0
DICTIONARY
  5
4E0
102
{ACAD_REACTORS
330
4DF
102
}
330
4DF
100
AcDbDictionary
281
     1
  0
DICTIONARY
  5
4E5
102
{ACAD_REACTORS
330
4E4
102
}
330
4E4
100
AcDbDictionary
281
     1
  0
DICTIONARY
  5
4EA
102
{ACAD_REACTORS
330
4E9
102
}
330
4E9
100
AcDbDictionary
281
     1
  0
DICTIONARY
  5
4EF
102
{ACAD_REACTORS
330
4EE
102
}
330
4EE
100
AcDbDictionary
281
     1
  0
DICTIONARY
  5
4F4
102
{ACAD_REACTORS
330
4F3
102
}
330
4F3
100
AcDbDictionary
281
     1
  0
DICTIONARY
  5
4F9
102
{ACAD_REACTORS
330
4F8
102
}
330
4F8
100
AcDbDictionary
281
     1
  0
DICTIONARY
  5
4FE
102
{ACAD_REACTORS
330
4FD
102
}
330
4FD
100
AcDbDictionary
281
     1
  0
DICTIONARY
  5
503
102
{ACAD_REACTORS
330
502
102
}
330
502
100
AcDbDictionary
281
     1
  0
DICTIONARY
  5
508
102
{ACAD_REACTORS
330
507
102
}
330
507
100
AcDbDictionary
281
     1
  0
DICTIONARY
  5
50D
102
{ACAD_REACTORS
330
50C
102
}
330
50C
100
AcDbDictionary
281
     1
  0
DICTIONARY
  5
513
102
{ACAD_REACTORS
330
512
102
}
330
512
100
AcDbDictionary
281
     1
  0
DICTIONARY
  5
518
102
{ACAD_REACTORS
330
517
102
}
330
517
100
AcDbDictionary
281
     1
  0
DICTIONARY
  5
51D
102
{ACAD_REACTORS
330
51C
102
}
330
51C
100
AcDbDictionary
281
     1
  0
DICTIONARY
  5
522
102
{ACAD_REACTORS
330
521
102
}
330
521
100
AcDbDictionary
281
     1
  0
DICTIONARY
  5
527
102
{ACAD_REACTORS
330
526
102
}
330
526
100
AcDbDictionary
281
     1
  0
DICTIONARY
  5
52C
102
{ACAD_REACTORS
330
52B
102
}
330
52B
100
AcDbDictionary
281
     1
  0
DICTIONARY
  5
531
102
{ACAD_REACTORS
330
530
102
}
330
530
100
AcDbDictionary
281
     1
  0
DICTIONARY
  5
53B
102
{ACAD_REACTORS
330
53A
102
}
330
53A
100
AcDbDictionary
281
     1
  0
DICTIONARY
  5
540
102
{ACAD_REACTORS
330
53F
102
}
330
53F
100
AcDbDictionary
281
     1
  0
DICTIONARY
  5
545
102
{ACAD_REACTORS
330
544
102
}
330
544
100
AcDbDictionary
281
     1
  0
DICTIONARY
  5
54D
102
{ACAD_REACTORS
330
54C
102
}
330
54C
100
AcDbDictionary
281
     1
  0
DICTIONARY
  5
552
102
{ACAD_REACTORS
330
551
102
}
330
551
100
AcDbDictionary
281
     1
  0
DICTIONARY
  5
557
102
{ACAD_REACTORS
330
556
102
}
330
556
100
AcDbDictionary
281
     1
  0
DICTIONARY
  5
55C
102
{ACAD_REACTORS
330
55B
102
}
330
55B
100
AcDbDictionary
281
     1
  0
DICTIONARY
  5
561
102
{ACAD_REACTORS
330
560
102
}
330
560
100
AcDbDictionary
281
     1
  0
DICTIONARY
  5
56B
102
{ACAD_REACTORS
330
56A
102
}
330
56A
100
AcDbDictionary
281
     1
  0
DICTIONARY
  5
570
102
{ACAD_REACTORS
330
56F
102
}
330
56F
100
AcDbDictionary
281
     1
  0
DICTIONARY
  5
575
102
{ACAD_REACTORS
330
574
102
}
330
574
100
AcDbDictionary
281
     1
  0
DICTIONARY
  5
57A
102
{ACAD_REACTORS
330
579
102
}
330
579
100
AcDbDictionary
281
     1
  0
DICTIONARY
  5
57F
102
{ACAD_REACTORS
330
57E
102
}
330
57E
100
AcDbDictionary
281
     1
  0
DICTIONARY
  5
584
102
{ACAD_REACTORS
330
583
102
}
330
583
100
AcDbDictionary
281
     1
  0
DICTIONARY
  5
589
102
{ACAD_REACTORS
330
588
102
}
330
588
100
AcDbDictionary
281
     1
  0
DICTIONARY
  5
58E
102
{ACAD_REACTORS
330
58D
102
}
330
58D
100
AcDbDictionary
281
     1
  0
DICTIONARY
  5
593
102
{ACAD_REACTORS
330
592
102
}
330
592
100
AcDbDictionary
281
     1
  0
DICTIONARY
  5
598
102
{ACAD_REACTORS
330
597
102
}
330
597
100
AcDbDictionary
281
     1
  0
DICTIONARY
  5
59D
102
{ACAD_REACTORS
330
59C
102
}
330
59C
100
AcDbDictionary
281
     1
  0
DICTIONARY
  5
5D7
102
{ACAD_REACTORS
330
5D6
102
}
330
5D6
100
AcDbDictionary
281
     1
  0
DICTIONARY
  5
5DC
102
{ACAD_REACTORS
330
5DB
102
}
330
5DB
100
AcDbDictionary
281
     1
  0
DICTIONARY
  5
5E8
102
{ACAD_REACTORS
330
5E7
102
}
330
5E7
100
AcDbDictionary
281
     1
  0
DICTIONARY
  5
5EE
102
{ACAD_REACTORS
330
5ED
102
}
330
5ED
100
AcDbDictionary
281
     1
  0
DICTIONARY
  5
5F4
102
{ACAD_REACTORS
330
5F3
102
}
330
5F3
100
AcDbDictionary
281
     1
  0
DICTIONARY
  5
5FA
102
{ACAD_REACTORS
330
5F9
102
}
330
5F9
100
AcDbDictionary
281
     1
  0
DICTIONARY
  5
5FF
102
{ACAD_REACTORS
330
5FE
102
}
330
5FE
100
AcDbDictionary
281
     1
  0
DICTIONARY
  5
611
102
{ACAD_REACTORS
330
610
102
}
330
610
100
AcDbDictionary
281
     1
  0
DICTIONARY
  5
617
102
{ACAD_REACTORS
330
616
102
}
330
616
100
AcDbDictionary
281
     1
  0
DICTIONARY
  5
628
102
{ACAD_REACTORS
330
627
102
}
330
627
100
AcDbDictionary
281
     1
  0
DICTIONARY
  5
862
330
1AC
100
AcDbDictionary
280
     1
281
     1
  3
ACAD_XREC_ROUNDTRIP
360
863
  0
DICTIONARY
  5
829
330
22
100
AcDbDictionary
280
     1
281
     1
  3
ACAD_XREC_ROUNDTRIP
360
82A
  0
DICTIONARY
  5
82B
330
59
100
AcDbDictionary
280
     1
281
     1
  3
ACAD_XREC_ROUNDTRIP
360
82C
  0
DICTIONARY
  5
82D
330
5E
100
AcDbDictionary
280
     1
281
     1
  3
ACAD_XREC_ROUNDTRIP
360
82E
  0
DICTIONARY
  5
188
330
97
100
AcDbDictionary
280
     1
281
     1
  3
ACAD_XREC_ROUNDTRIP
360
78A
  3
FBXASSET
360
189
  0
DICTIONARY
  5
186
330
96
100
AcDbDictionary
280
     1
281
     1
  3
ACAD_XREC_ROUNDTRIP
360
789
  3
FBXASSET
360
187
  0
DICTIONARY
  5
110
330
98
100
AcDbDictionary
280
     1
281
     1
  3
ACAD_XREC_ROUNDTRIP
360
78B
  3
BUMPTILE
360
112
  3
DIFFUSETILE
360
111
  3
FBXASSET
360
18A
  3
OPACITYTILE
360
113
  3
REFLECTIONTILE
360
114
  0
DICTIONARY
  5
860
330
1AA
100
AcDbDictionary
280
     1
281
     1
  3
ACAD_XREC_ROUNDTRIP
360
861
  0
DICTIONARY
  5
104
330
87
100
AcDbDictionary
280
     1
281
     1
  3
ACAD_ROUNDTRIP_2008_TABLESTYLE_CELLSTYLEMAP
360
823
  3
ACAD_XREC_ROUNDTRIP
360
82F
  0
DICTIONARY
  5
83A
330
9F
100
AcDbDictionary
280
     1
281
     1
  3
ACAD_XREC_ROUNDTRIP
360
83B
  0
DICTIONARY
  5
864
330
263
100
AcDbDictionary
280
     1
281
     1
  3
ACAD_XREC_ROUNDTRIP
360
865
  0
DICTIONARY
  5
838
330
9E
100
AcDbDictionary
280
     1
281
     1
  3
ACAD_XREC_ROUNDTRIP
360
839
  0
DICTIONARY
  5
846
330
A5
100
AcDbDictionary
280
     1
281
     1
  3
ACAD_XREC_ROUNDTRIP
360
847
  0
DICTIONARY
  5
84E
330
A9
100
AcDbDictionary
280
     1
281
     1
  3
ACAD_XREC_ROUNDTRIP
360
84F
  0
DICTIONARY
  5
840
330
A2
100
AcDbDictionary
280
     1
281
     1
  3
ACAD_XREC_ROUNDTRIP
360
841
  0
DICTIONARY
  5
844
330
A4
100
AcDbDictionary
280
     1
281
     1
  3
ACAD_XREC_ROUNDTRIP
360
845
  0
DICTIONARY
  5
854
330
175
100
AcDbDictionary
280
     1
281
     1
  3
ACAD_XREC_ROUNDTRIP
360
855
  0
DICTIONARY
  5
84C
330
A8
100
AcDbDictionary
280
     1
281
     1
  3
ACAD_XREC_ROUNDTRIP
360
84D
  0
DICTIONARY
  5
830
330
9A
100
AcDbDictionary
280
     1
281
     1
  3
ACAD_XREC_ROUNDTRIP
360
831
  0
DICTIONARY
  5
832
330
9B
100
AcDbDictionary
280
     1
281
     1
  3
ACAD_XREC_ROUNDTRIP
360
833
  0
DICTIONARY
  5
834
330
9C
100
AcDbDictionary
280
     1
281
     1
  3
ACAD_XREC_ROUNDTRIP
360
835
  0
DICTIONARY
  5
836
330
9D
100
AcDbDictionary
280
     1
281
     1
  3
ACAD_XREC_ROUNDTRIP
360
837
  0
DICTIONARY
  5
83E
330
A1
100
AcDbDictionary
280
     1
281
     1
  3
ACAD_XREC_ROUNDTRIP
360
83F
  0
DICTIONARY
  5
850
330
173
100
AcDbDictionary
280
     1
281
     1
  3
ACAD_XREC_ROUNDTRIP
360
851
  0
DICTIONARY
  5
84A
330
A7
100
AcDbDictionary
280
     1
281
     1
  3
ACAD_XREC_ROUNDTRIP
360
84B
  0
DICTIONARY
  5
852
330
174
100
AcDbDictionary
280
     1
281
     1
  3
ACAD_XREC_ROUNDTRIP
360
853
  0
DICTIONARY
  5
842
330
A3
100
AcDbDictionary
280
     1
281
     1
  3
ACAD_XREC_ROUNDTRIP
360
843
  0
DICTIONARY
  5
85E
330
182
100
AcDbDictionary
280
     1
281
     1
  3
ACAD_XREC_ROUNDTRIP
360
85F
  0
DICTIONARY
  5
85C
330
181
100
AcDbDictionary
280
     1
281
     1
  3
ACAD_XREC_ROUNDTRIP
360
85D
  0
DICTIONARY
  5
856
330
17E
100
AcDbDictionary
280
     1
281
     1
  3
ACAD_XREC_ROUNDTRIP
360
857
  0
DICTIONARY
  5
858
330
17F
100
AcDbDictionary
280
     1
281
     1
  3
ACAD_XREC_ROUNDTRIP
360
859
  0
DICTIONARY
  5
848
330
A6
100
AcDbDictionary
280
     1
281
     1
  3
ACAD_XREC_ROUNDTRIP
360
849
  0
DICTIONARY
  5
83C
330
A0
100
AcDbDictionary
280
     1
281
     1
  3
ACAD_XREC_ROUNDTRIP
360
83D
  0
DICTIONARY
  5
85A
330
180
100
AcDbDictionary
280
     1
281
     1
  3
ACAD_XREC_ROUNDTRIP
360
85B
  0
XRECORD
  5
863
102
{ACAD_REACTORS
330
862
102
}
330
862
100
AcDbXrecord
280
     1
102
DISPLAYNAME
  1
Imperial24
102
FLAGS
 90
        0
  0
XRECORD
  5
82A
102
{ACAD_REACTORS
330
829
102
}
330
829
100
AcDbXrecord
280
     1
102
SHADEPLOT
 70
     0
102
SHADEPLOTRESLEVEL
 70
     2
102
SHADEPLOTCUSTOMDPI
 70
   300
  0
XRECORD
  5
82C
102
{ACAD_REACTORS
330
82B
102
}
330
82B
100
AcDbXrecord
280
     1
102
SHADEPLOT
 70
     0
102
SHADEPLOTRESLEVEL
 70
     2
102
SHADEPLOTCUSTOMDPI
 70
   300
  0
XRECORD
  5
82E
102
{ACAD_REACTORS
330
82D
102
}
330
82D
100
AcDbXrecord
280
     1
102
SHADEPLOT
 70
     0
102
SHADEPLOTRESLEVEL
 70
     2
102
SHADEPLOTCUSTOMDPI
 70
   300
  0
XRECORD
  5
78A
102
{ACAD_REACTORS
330
188
102
}
330
188
100
AcDbXrecord
280
     1
102
MATERIAL
148
0.0
149
0.0
149
0.0
 93
        0
 94
      127
282
     0
 72
     1
 77
     1
171
     1
175
     1
179
     1
273
     0
  0
XRECORD
  5
189
102
{ACAD_REACTORS
330
188
102
}
330
188
100
AcDbXrecord
280
     1
 70
     1
 90
429727718
  1
508B35C9-AEE7-456F-BE74-D52651303AC6
310
504B03040A0000080000B670623B3DEE336E79000000790000001B0000006175746F6465736B2D64657369676E2D7061636B6167652E786D6C3C3F786D6C2076657273696F6E3D22312E302220656E636F64696E673D227574662D3822203F3E3C666F726D6174733E3C666F726D61743E687474703A2F2F736368656D612E
310
6175746F6465736B2E636F6D2F64657369676E2D7061636B6167652F323030393C2F666F726D61743E3C2F666F726D6174733E504B0304140006080800B670623BD486FD9CA0000000F4000000130000005B436F6E74656E745F54797065735D2E786D6C7D8EC10E82300C865F65E91D8A1E8C310C0EEA1BF002731658846E
310
D98AC1B77784ABF1D8FE5FBFBF75BBCE937A534CCEB38643598122B6FEE978D0B0485F9C41B54DDD7D022595594E1A469170414C76A4D9A4D207E29CF43ECE46F218070CC6BECC4078ACAA135ACF422C856C0E68EA1BF5669944DDD7BCDE7B1F8E415D77AECB980613C2E4AC91FC167A2B244592486606FC29C8FD7F045B9A
310
EF7053A7E60B504B0304140006080800B670623B28ED286BEB0000007C01000008000000636F72652E786D6C8D90416EC3201045AF82665B6183218D6D61A254764FD00B204C5C94182C03558F5F9C3852BBEB6A467FFE9B197D71FA9E6FE8CBACC17AD7012D0820E3B41FAD9B3A48F1826B40272956EFE32F1B20A766D3C1
310
268314D3EAD3B24BDABB685CCCAAF3A3D94515828980F42D371D04FD696655A814B3235C8B45E9AB9A4C419F5D8653B2237A1CB163DE672FD6AC209BF3C08E0D1B30EB19C3FC9D72FCC6EB231EFA33EDE96BDD341517E5064B11EDFCBCAF57A3A2194156843498524CAA0FCA5B7268F9E185D42D21A2DCEC7FA0B48CFF8492
310
759155FBBB0F2C80A4F991FB408A72CB22977B50B96EB9C91F504B0304140006080800B670623B55019EA25F0000007C00000007000000636E782E786D6C4DCB3B0E80201045D1AD90E915ED2CF8AC45050C11660C8261F98AB1B07AC9C97D42D718D865D3E909258CFD00CCE24AC6E326A164D74DC0B4128928FF32603847
310
2BA13128B1252AC747C6BAB984FC68F0B87FE8960A5C09FE86CFB69FBA01504B0304140006080800B670623B7BC41AC871010000D40300000C0000006662782F636F72652E786D6CC553ED6E8320147D15C2DF4501B56B6D90A64BBB27D80B50A5CE54C120983EFEAE1F4DD7A56BBA5FF3879273EEE59E7310BE393735EA95
310
ED2AA333CC428A91D2B9292A5D66D8BB63B0C26823B835C67D2BC348CB46657880B1E0A535BE9DA1DC68A7B403549B42CDA0EC3AE530CA6B5864B8CB3F552343E91D5474A7B095F949962A6421D0502778E72C0840D390E18DC5F170E664C205F7BE2A66B62A605A75AC94C522DDEEE3651AEF837817C741F2CE92E02D592D
310
83FD6ECB76EC7595A651C2C9D02CB8AB9A8BBADC2AE954814544691A3016D0E883256BBA58278B17BA5A53CAC9507ED3E4DBE2C9265F691747B3DCA9ADC382819091F8E1162272A8933DE82182932144F88C09DF060D8140C84E1EEA8B8F1340BDCA9DB1093085F157AA97B557309586747CD0EF0B4EA64E983A6E0EAEEFCE
310
889E9EF17847386AA94B30211D2C0FDE0D3AF9A4610EAD5536E8DD1969631B593F67E381C33F5157F17725E5A636F6BF1491F980C8FC7B90E13E8A2F504B0304140006080800B670623B70102A487D0000009D0000000B0000006662782F636E782E786D6C4DCCD10A83201886E15B91FFDC95A5C30335ACCDFB886521330D
310
A76397BF1A1DECE883878F57749FD5A3B74D2F17830472A901D9F088930B8B849267CC01754AA418F3DF0D5018572BE160506249B16C274D761E8BCFBB7A179E27F65CB39A0F14D396184C9921B81F34C3ACA1B4B99ABB6E6F062A25AA5F69DF23ACBE504B0304140006080800B670623B3610CA3329010000120200003100
310
00006662782F42384135303843342D343331462D343546312D424341352D3532343432364645413344462F636F72652E786D6C8D515B6EC32010BC0AE22B55850D0E446E848992B43E412FE000495162B07854397EA176A4F62F3F2C9A9D991D58BEBB8F37F0AD7D30CE76905418026DA553C65E3A98E219B510EC04F7CEC5
310
3F3408EC30EA0E16180A7EF12E4D0B249D8DDAC68C5AA7F4020E21E80881BCE54B0783FCD2E3500D296646B856D320AFC34557A4CAEDCC133C449F0380794839A138B47B86DB2345744D7A44594FD0E1B867883594369BFE63BF7EEF793D0B054FC9A8456E548E63CE46FB674D8A58F068C6477CE9F510B582A2C1F80D1182
310
70F349E816B32D65AFB8DD62CCEB42FF274A937A52948C8DEB66893BCB021484D7734370E5D2E9F608A3EF93F3119479ABA0E50B14B8C298119A43CCC4FCFCECB8A18B6388CEE7EF5D5D4F994BD86CBBA182D76543B9FCAE2FD7B24DF103504B0304140006080800B670623B1B8617914E0100003303000030000000666278
310
2F42384135303843342D343331462D343546312D424341352D3532343432364645413344462F636E782E786D6CD593C16EC32010447F0571AD6CE3D489D20813A9877E410FBD62D82434182CC055F3F75D1292E692438FBD206B7698593D61BEFD1E2DF982108D773D6D6B460938E5B571FB9ECE6957AD29D90A1EBC4F7736
310
4A9C1CA1A759A682EF839FA72269D8C9D92654AD71C72206887E0E0A22CAF926B15E498B01E0AA19451807D01A34B919F16B070157417138917400F2F6FA41FCF0092A45DEE414C19BDC21783E4BD39D891265658C3D8DEA00A3ACE59CBC8678ACB54CB26EEB6BD7839D7E9348BE70AD9C8321B9BCA7F9A4A26C542347DEE0
310
50F09802D22BA6749A800A394DD62899107273365E3C82CFC6A55557BC06C10774B7ABE7AEC3B0F34CF06446280E154026D0542C187BA9DAB6628BF7B6DBB0E5A65B3EB1F58631DE64BBE083F7B65CC218087E22CABB042E51D1F2268F1FE12B3EA24D40D63E9CFE00120194D60B9D5BC67FE6D39CDF37E20AF817881F504B
310
0304140006080800B670623BBFEF2E3B690500003C100000340000006662782F42384135303843342D343331462D343546312D424341352D3532343432364645413344462F6F626A656374732E786D6CAD575D739B3814FD2B0CFB0C98D84E931D4227B6938EA793B6534F3BFB90198F0099B001899144EAECAFDF231018B0
310
D37A3FFC609090EEE7B94757C1FB7D915B2F54C88CB31BDB7727B64559CC938CA53776A576CE956DBD0F03C1B9EA2DB32D460A7A63EB693B0C52C1ABD24C257447AA5C8D66EF177F5832A68CDA569C13296F6C193FD182B8A4523CA1F2D94D88226EBADBBBBEDB2C1C8A4D05299F46424B222853B014F30C52ACC6287F389C
310
D85E1878FA7B18E87FB36AFAF62AAFF667A83F635211161F291B8999FAB3D5DDC5FCDA99CF6653677679E13B8BFBC5CAF1DF4D27CBCBE5F2FAF6EE1A8AA51290642C117467871F101B91C581D77CEA2C36869F3229E68CD1B8F61F1ED6361B89092D294B90C78C4A68EB793D190E7D1D9BDEE7A91E1B95FDE9F3BCEAEFE809
310
6A6D6F9F7D4B79F4275C90E7A04248AA51D5C4C738DAE06F72885AC4796EBE65D22A88A22223B995679120E2D50EB1542F098381188D4EA111AE3DB043FF20AF6F2B4AE3D7D83D65E5AECA730D4D3BAC91BD05FEA992B565D95F549CD6069B90AB2A63EACA38A45E4B6A87D781574F86817E4C2FCCC72690D62E2729520E37
310
9BAF234797BAF6D62B3BFC781FED37BA1E4F2B2F052FA9501A3E80569BB8F6A9A364D4FA67654E6F803383981F82F21591FF84F23D9882BC896C3FDBCF8C162508933B2E0AE4C69DD43F6BD2BE38DDDBF10BF86CB4FA784D37F3AF16075E67EC9030DECA1FC0A55373F5DFF3378C591FA9BDF485C10B0A8C8BA909E5262639
310
A8E72163488806A595734C81CB77D1DE0ED7604A303B76913CEC0272F412782FF88EFF4636D8AA56DF7B322474C4B767303F625997056C7B032C473C592B36CEBD15F3F9FF5233B7ABCDC74D257624A60F8658567497B14CE1EC3C80B76FD02011038F9EE9EB0F2E12387A9C844D3F09855125116D1D731DF8B43D2CF4E0A0
310
79A020C6BE946BCE0B7EA1E1219331CD73C228AF5A2DDD31A4B1DA918CE91350854D40A71723140BFA92E94E62B0626016CEFA5864A50E5977E8753CEDBEE1CBB7F52780D20E17AF0BA0F5F9B02A3AD07DCC732EB6D1EBB661421BE0C39E21BABF0FE16D22EA6929407C8DE596724C88B749B6DB5512BC7B228ADFD7CB7EA6
310
3A22397E690BA8D5D8D4E40CEC8CDA23C2C0B7D5898640101CEC9C6D331CE328CB93CAFBBAC70A642DF70DF95155945B52F08AA973C23469FD69ADEF84F7BB18F983A8F8C90E37F5D35980B2139A1C523540813E824EF83448CF7C72B598CE97D7CEEDDDDD3B6736BFBC771677EF66CE6A7E7139F7A793E9EDF2B2B3A8B624
310
0CDA13AA5F8388264EC4A0129909F3B7F5A16CEDF08128E97D680ACA4B9BE7B7B58BB638F0B00700EF36AE8B32A705658A68F83EE897FC2B41573190D1CCAF0B92D233A47CFEB019D9809933F67DD1A5467F8CF69AD9A5AE859342D45355448C64F968A371DC2D596ADC6E43D93D1B466F877A64E2893E54F23C4B40388995
310
525E5005DA3983ED45412510D3EFCA13737B3863F74BD30F2A12E5B4B5E489A025CE25500DB855B11ACE5BBFA185D35DD48D8DC3CE7DC69F2944DB42AA6F6CF09BCA622ADD08C7A36E7C6AE18000BAB08E040135C2D21C9D75B3A91B77BB746C403F38018DFE6EC939DD92F16B40BC05294B9CDA035AAD6D330AE27FE4786B
310
8E45145EA34A75BE1C263A676A35A8ACC6297337400BF16C54EF515F3F77CB77EB3583889C754FFA29081AA98E2222ADEF05DA3E63D2EDEA8B8756C05A7FB6CABC4A91CBF325398202CC952E70A008A830324BA200D5E5EF8F5F04C75DB4B0EE3340E071C98B823333B83577596BF3849B69F2085AA0FAFA212F26BEFF5877
310
FDE622B28D88A42E49E43326DA82D31E8CB006401E1DA726059ECEC168F97A6599036306A135688F9AD2E61A6EA178F4CD51974A9F2CCB9F36FE5EBD14601068D9C3BF01504B0304140006080000B670623B000000000000000000000000350000006662782F42384135303843342D343331462D343546312D424341352D35
310
32343432364645413344462F76657274696365732E62696E504B0304140006080800B670623BF270F1330600000004000000360000006662782F42384135303843342D343331462D343546312D424341352D3532343432364645413344462F747269616E676C65732E62696E636660600000504B0304140006080000B67062
310
3B000000000000000000000000370000006662782F42384135303843342D343331462D343546312D424341352D3532343432364645413344462F617474726962757465732E62696E504B0304140006080800B670623B08DA0BD19000000041010000360000006662782F42384135303843342D343331462D343546312D4243
310
41352D3532343432364645413344462F6469726563746F72792E786D6C858F410AC3201045AF22B36F53E9A60B35CBEEBAE80D244E44489C6234F4F835464A48035D0DF398FF9F8AF63D0E6CC63039F212F8F9020C7D47C6792B21C5FE7403D62A1188E2E60C98D7234A5830286103A55745067B9D86B8A3CF9C7F90C11DE6
310
07FB144396D7B6A82D282E9A152AD114D5EF2CB866EEE831B8EEA07A7BB5A8D7D61A2BAAEB7FD5F70921FF497D00504B0304140006080800B670623B3B4606F3FE000000A00100003B0000006662782F42384135303843342D343331462D343546312D424341352D3532343432364645413344462F7265736F75726365732F
310
636F72652E786D6C8D504B6E833010BD0A9A6D65B08134808CA354A427E8052C332156828DFCA97AFC9A40A576D7CDCCE87D344F8F9FBEE647F689CE6B6B7A6039850C8DB2A336530F315C4903D94970676DF82583CCC8197B5861107C72362E3BA4AC096842428D1D7107A5F71820538F74F4E0D50D6799CB1892C2DFF345
310
AABB9C306779A2934E701F5C0A906D4FD609C2A1B7D129F4BCD858C163D4E3AED163FAA9AF1A1D88F67CA98E6D35906AA82A52BFB39ABCD5CD915C86331BD86BD3B665CD8BD52C78D0F34F46E550061C419494B6843142CB0F5677F4D0D58717DA7494F26295FF31C565FCA7296A13AA728FBBD93C0896823C09C18BB5AFB4
310
9E65A6BD762BBE01504B010214000A0000080000B670623B3DEE336E79000000790000001B00000000000000000000000000000000006175746F6465736B2D64657369676E2D7061636B6167652E786D6C504B01021400140006080800B670623BD486FD9CA0000000F40000001300000000000000000000000000B2000000
310
5B436F6E74656E745F54797065735D2E786D6C504B01021400140006080800B670623B28ED286BEB0000007C010000080000000000000000000000000083010000636F72652E786D6C504B01021400140006080800B670623B55019EA25F0000007C000000070000000000000000000000000094020000636E782E786D6C50
310
4B01021400140006080800B670623B7BC41AC871010000D40300000C00000000000000000000000000180300006662782F636F72652E786D6C504B01021400140006080800B670623B70102A487D0000009D0000000B00000000000000000000000000B30400006662782F636E782E786D6C504B01021400140006080800B6
310
70623B3610CA3329010000120200003100000000000000000000000000590500006662782F42384135303843342D343331462D343546312D424341352D3532343432364645413344462F636F72652E786D6C504B01021400140006080800B670623B1B8617914E010000330300003000000000000000000000000000D10600
310
006662782F42384135303843342D343331462D343546312D424341352D3532343432364645413344462F636E782E786D6C504B01021400140006080800B670623BBFEF2E3B690500003C10000034000000000000000000000000006D0800006662782F42384135303843342D343331462D343546312D424341352D35323434
310
32364645413344462F6F626A656374732E786D6C504B01021400140006080000B670623B0000000000000000000000003500000000000000000000000000280E00006662782F42384135303843342D343331462D343546312D424341352D3532343432364645413344462F76657274696365732E62696E504B010214001400
310
06080800B670623BF270F133060000000400000036000000000000000000000000007B0E00006662782F42384135303843342D343331462D343546312D424341352D3532343432364645413344462F747269616E676C65732E62696E504B01021400140006080000B670623B00000000000000000000000037000000000000
310
00000000000000D50E00006662782F42384135303843342D343331462D343546312D424341352D3532343432364645413344462F617474726962757465732E62696E504B01021400140006080800B670623B08DA0BD1900000004101000036000000000000000000000000002A0F00006662782F42384135303843342D3433
310
31462D343546312D424341352D3532343432364645413344462F6469726563746F72792E786D6C504B01021400140006080800B670623B3B4606F3FE000000A00100003B000000000000000000000000000E1000006662782F42384135303843342D343331462D343546312D424341352D3532343432364645413344462F72
310
65736F75726365732F636F72652E786D6C504B0506000000000E000E0080040000651100000000
  0
XRECORD
  5
789
102
{ACAD_REACTORS
330
186
102
}
330
186
100
AcDbXrecord
280
     1
102
MATERIAL
148
0.0
149
0.0
149
0.0
 93
        0
 94
      127
282
     0
 72
     1
 77
     1
171
     1
175
     1
179
     1
273
     0
  0
XRECORD
  5
187
102
{ACAD_REACTORS
330
186
102
}
330
186
100
AcDbXrecord
280
     1
 70
     1
 90
429727718
  1
887D55A9-D0DD-414E-B741-A7DCD4DA2B4C
310
504B03040A0000080000B670623B3DEE336E79000000790000001B0000006175746F6465736B2D64657369676E2D7061636B6167652E786D6C3C3F786D6C2076657273696F6E3D22312E302220656E636F64696E673D227574662D3822203F3E3C666F726D6174733E3C666F726D61743E687474703A2F2F736368656D612E
310
6175746F6465736B2E636F6D2F64657369676E2D7061636B6167652F323030393C2F666F726D61743E3C2F666F726D6174733E504B0304140006080800B670623BD486FD9CA0000000F4000000130000005B436F6E74656E745F54797065735D2E786D6C7D8EC10E82300C865F65E91D8A1E8C310C0EEA1BF002731658846E
310
D98AC1B77784ABF1D8FE5FBFBF75BBCE937A534CCEB38643598122B6FEE978D0B0485F9C41B54DDD7D022595594E1A469170414C76A4D9A4D207E29CF43ECE46F218070CC6BECC4078ACAA135ACF422C856C0E68EA1BF5669944DDD7BCDE7B1F8E415D77AECB980613C2E4AC91FC167A2B244592486606FC29C8FD7F045B9A
310
EF7053A7E60B504B0304140006080800B670623BBC1638F5EC0000007C01000008000000636F72652E786D6C8D90416EC3201045AF82665B61836BE2D8C24471DB9CA01740401C94182C03558F5F9C3852BBEB6A467FFE9B197D7EF89E6EE8CB2CC17AD7032D0820E394D7D68D3DA478C67B4007C117EFE32F1B202727D3C3
310
2A83E0E3E2D3BC49CABB685CCCAAF3DA6CA20CC14440EA969B1E82BA98491632C5EC08D76296EA2A4753D06797E194AC468F2356E77DF66CCD02825543D50CACC62D39ED70FDC68EB8FD68F6F8787A6784342D1DDA1D2F5758F068A7E77DB518198D065111D2624A31A93E69DD11D6D5EC85EC3B4278B9DAFF4069D6FF8492
310
75F1B5DADE7D600104CD8FDC0782976B16B9DC83CA75CD4DFC00504B0304140006080800B670623B55019EA25F0000007C00000007000000636E782E786D6C4DCB3B0E80201045D1AD90E915ED2CF8AC45050C11660C8261F98AB1B07AC9C97D42D718D865D3E909258CFD00CCE24AC6E326A164D74DC0B4128928FF326038
310
472BA13128B1252AC747C6BAB984FC68F0B87FE8960A5C09FE86CFB69FBA01504B0304140006080800B670623B3586FFB671010000D40300000C0000006662782F636F72652E786D6CC553ED6E8320147D15C2DF4541A76D6D90A6DDD627D80B50A4CE54C120983EFEAE1F4DD7A55BBA5FF3879273EEE59E7310B6393735EA
310
95ED2AA3731C851423A5A5292A5DE6D8BB63B0C268C39935C67D29C3488B46E578803167A535BE9D2169B453DA01AA4DA16650749D7218C91A1639EEE4876A4428BC838AEE14B6429E44A9C228041AEA38EB9C0501681A32BC313F1ECE8C4C3867DE57C5CC56054CAB8E95B298A7F12E5EEED224C8E87E11242FE936C8DE96
310
AB60BB7F4D295D66D12E5B30323473E6AAE6A24E5A259C2A308F29CD82280A68FC1E256B9AAE93F489AED694323294DF34F9B678B0C957DA3DC7B3DCA9ADC33C022123F1CD2D44E450277AD04338234388F01913BE0D1A0281909D38D4171F27807A259DB1093085F157AA17B557309586747CD0CF0B46A64E983A6E0EAEEF
310
CE881F9EF1FB8E70D44297604238581EBC1B74B249C31C5AAB6CD0BB33D2C636A27ECCC62F0EFF445DC5DF95244D6DEC7F2922F30191F9F720C37DE49F504B0304140006080800B670623B4220A0FF7D0000009D0000000B0000006662782F636E782E786D6C4DCCD10A83201886E15B91FFDCE542CB0335D0EC3E6259C84A
310
C3E9D8E5AF46073BFAE0E1E315DD675BD1DBA5978F41C2FD4600B9F088930F8B849267CC01754AA418F3DF0D50183727E164506249B1EC174D6E1ECB9A0F5D7D785E68DB8151CD286E5A5363CA6B8A39E90D36D40E96B086F55A43A544F52B1D7B86D517504B0304140006080800B670623B2FA3FEDE290100001202000031
310
0000006662782F45374635344235342D363743322D343832342D383044432D4334454645303536354442422F636F72652E786D6C8D515B6EC32010BC0AE22B55850D2E386E848994D7097A0117488A1283C5A3CAF10BB523B57FF961D1ECCCECC0F2ED7DBC816FED8371B687A4C210682B9D32F6D2C314CFA883602BB8772E
310
FEA141608751F7B0C050F08B77695A20E96CD43666D43AA5177008414708E42D5F7A18E4971E876A483133C2B59A06791D2EBA22556E679EE021FA1C00CC43CA09C5717D6274C7286AD7FB06D1AEA1A8C3873DDAD3E3E98859CB0EBB1DAF67A1E02919B5C88DCA71CCD968FFAC49110B1ECDF8882FBD1EA256503418BF2342
310
106E3E08DD60B6A1EC15771B8C795DE8FF4469524F8A92B1F1AD59E2CEB20005E1F5DC105CB9F4797B84D1F7C9F908CABC55D0F2050A5C61CC1AD2F27A26E6E767C7962E8E213A9FBF7775FDCC5CC266DB960A5E970DE5F2BBBE5CCB36C50F504B0304140006080800B670623B1B8617914E01000033030000300000006662
310
782F45374635344235342D363743322D343832342D383044432D4334454645303536354442422F636E782E786D6CD593C16EC32010447F0571AD6CE3D489D20813A9877E410FBD62D82434182CC055F3F75D1292E692438FBD206B7698593D61BEFD1E2DF982108D773D6D6B460938E5B571FB9ECE6957AD29D90A1EBC4F77
310
364A9C1CA1A759A682EF839FA72269D8C9D92654AD71C72206887E0E0A22CAF926B15E498B01E0AA19451807D01A34B919F16B070157417138917400F2F6FA41FCF0092A45DEE414C19BDC21783E4BD39D891265658C3D8DEA00A3ACE59CBC8678ACB54CB26EEB6BD7839D7E9348BE70AD9C8321B9BCA7F9A4A26C542347DE
310
E050F09802D22BA6749A800A394DD62899107273365E3C82CFC6A55557BC06C10774B7ABE7AEC3B0F34CF06446280E154026D0542C187BA9DAB6628BF7B6DBB0E5A65B3EB1F58631DE64BBE083F7B65CC218087E22CABB042E51D1F2268F1FE12B3EA24D40D63E9CFE00120194D60B9D5BC67FE6D39CDF37E20AF817881F50
310
4B0304140006080800B670623B29652116630500003C100000340000006662782F45374635344235342D363743322D343832342D383044432D4334454645303536354442422F6F626A656374732E786D6CAD575D739B3814FD2B0CFB0C989834C90EA1639B24E3E9A6EDD4D3CE3E64C623834CD8006224913AFDF57B040203
310
B65BEF871F0C12D2FD3CF7E8CA7FBFCB33E3957291B2E2D674ED8969D02262715A24B76625B7D6B569BC0F7CCE98EC2D338D82E4F4D654D366E0279C55A59E8AE99654991CCDDECFFF3444440B6A1A514684B83545F44C7362934AB2988A173B2692D8C97667BB76B3702836E1A47C1E092D09A78584A5982F20C5688C7287
310
C389E904BEA3BE07BEFAD7ABA6A75739B53F43FD69212429A20365233153D70BEF2E2E6FAC4BCF9B5ADEBB0BD79ADFCF43CBBD9A4E16EF168B9BD9DD0D140BC921495BC2E9D60C1E101B9E46BED37CEA2CD6861F3329624541A3DA7F7858DBAC25C6B4A4458C3CA654405BCFEBC970E8AAD8F43E4FD558ABEC4F9FE7557F47
310
4F506B7BFBEC5BCA367FC105710E2AB8A00A554D7CB4A30DFE26FBA86D18CBF4B75418399194A72433B274C3097F33032C554B027F2046A1932B842B0FCCC0DDCBEBDB8AD2F835768F59B9ADB24C41D30C6A64AF817F2A456D59FA83F2E3DA60137255A585BCD60EC9B7929AC18DEFD49381AF1ED30BFDB109A4B1CD488294
310
C3CDE6EBC8D185AABD6568061FEE37BB95AAC7E3CA4BCE4ACAA5820FA0D526AE7DAA2869B5EE5999531BE0CC20E6FBA07C41E43FA27CF7A6206F3CDD793B4F6B919C1462CB788EDCD893FA674CDA17AB7B3B7C019F8D561FAEE966FED562DFE98C1D12C6A9FC015C2A35D7FF3D7FC398F591DA4B5FE0BFA2C0189FEA50AE22
310
92817A1ED3020951A03432862970F976B33383259812CC8E5D240BBA801CBCF8CE2BBEE3BF910DB6AAD5F79E05123AE2DB33981FB1ACCB02B69D00CB014FD68AB573A7627EF9BFD4CC2C5C7D58557C4B22FAA88925A4DBB44825CECE3D78FB060D1231F0E885BE7D673C86A3874958F593906B5502D1563157814FDAC3420D
310
F69A070A22EC4B98E23CFF171A1E5311D12C23056555ABA53B8614563B92D17D02AAB009E8F46284624E5F53D5490C560CCCC2591FF1B45421EB0EBD8EA7ED13BE7C5D7E0428CD60FEF60779EB13E6664FF711CB185F6FDED60D139A001FF60CD1FD6D086F1D51474901E26B2CB794A343BC8ED3EDB612E0DD2351FCB65CF4
310
33D511C9E14B5B40ADC6A6263DB0336A8F700DDF56271A024E70B0B3629DE21847591E55DED73D56206AB927E46FAABC5C939C55853C274C93D69FD6FA4E78BF8B11DF898C9ECD60553FAD39283BA6F18984AA23E8884F83F45C5F5F859797B31B2B9C84A1E5B9DE9D35BFF25C6B76152E422F9C5DCC3D847F5801ED09D5AF
310
41441327A25FF15487F9EB725FB666F048A4701E9A827292E6F97569A32DF61DEC01C0BB8DCBBCCC684E0B49147C1FD54BF685A0AB18C868E6973949E819523E3DAC463660E68C7D9F55A9D1EFA3BD7A76A16AE1A810F95CE59B82A4D968A376DC2E8B44BBDD86B27B368CDE0ED548C7137DA860591A83706223A12CA712B4
310
7306DBF39C0A20A6DF95C7FAF670C6EED7A61F946493D1D6926782963813403548A78AE470DEF80D2D9CEAA26E4D1C76F60BFE74219A06527D6B82DF641A51616F703CAAC6A7160E08A00BEB4810A0274592A1B36E3675E36E978A0DE80727A0D6DF2D39A75BD27E0D8837276589537B40ABB56D5A41F48F1C6FCD3188C4EB
310
A6929D2FFB89CE995A4D00AE813BDD032DC48B56BD437DFDDC2DD7AED70C2272D63DE9A72068A45A92F0A4BE17A8A06B9366E16707AD80B1FC649459952097E74BB23805982B55E0401150A165964402AA8BDF9F3E7386BB686EDCA780C0D382E5392BF460A6EFB2C6EA1937D3F809B440D5F5435C4C5CF7A9EEFAF54564BD
310
2182DA24162F98680B4E7930C21A0079709CEAEB99A372305ABE0C0D7D6078105A83F6A0296DAEE1068A47DD1C55A9F4C9B2FC69E3EFD44B81028E963DF81B504B0304140006080000B670623B000000000000000000000000350000006662782F45374635344235342D363743322D343832342D383044432D433445464530
310
3536354442422F76657274696365732E62696E504B0304140006080800B670623BF270F1330600000004000000360000006662782F45374635344235342D363743322D343832342D383044432D4334454645303536354442422F747269616E676C65732E62696E636660600000504B0304140006080000B670623B00000000
310
0000000000000000370000006662782F45374635344235342D363743322D343832342D383044432D4334454645303536354442422F617474726962757465732E62696E504B0304140006080800B670623B08DA0BD19000000041010000360000006662782F45374635344235342D363743322D343832342D383044432D4334
310
454645303536354442422F6469726563746F72792E786D6C858F410AC3201045AF22B36F53E9A60B35CBEEBAE80D244E44489C6234F4F835464A48035D0DF398FF9F8AF63D0E6CC63039F212F8F9020C7D47C6792B21C5FE7403D62A1188E2E60C98D7234A5830286103A55745067B9D86B8A3CF9C7F90C11DE607FB144396
310
D7B6A82D282E9A152AD114D5EF2CB866EEE831B8EEA07A7BB5A8D7D61A2BAAEB7FD5F70921FF497D00504B0304140006080800B670623B6378F24DFF000000A00100003B0000006662782F45374635344235342D363743322D343832342D383044432D4334454645303536354442422F7265736F75726365732F636F72652E
310
786D6C8D504B6E833010BD0A9A6D65B0094E42641C85B639412F6099496225D8C89FAAC7AF09546A77DDCC8CDE47F3F4C4F16B7C149FE88371B603565228D06A37187BED20C50BD9437194C23B177FC9A0B06AC40E6618A4B87A97A615D2CE46B431A3D60DB8822A048C50E8473E3A08FA86A32A558A5911EEE5A4F45D5DB1
310
6465A6B34E8A107D0E502C4FE609D26370C96B0CA25A58295232C3AA3143FE692E063D485EF7F5AEE71BD2D2F39634AFFC44DAF7DD9E9CCE6F9CD25DCBFA762BAAD92C4534E34F46ED51451C40D694B6843142EB0FD61C283F34FC85EE0F948A6A96FF31A569F8A729191B37F51A77B105902C0779125254735F793DCBCC7B
310
EE567E03504B010214000A0000080000B670623B3DEE336E79000000790000001B00000000000000000000000000000000006175746F6465736B2D64657369676E2D7061636B6167652E786D6C504B01021400140006080800B670623BD486FD9CA0000000F40000001300000000000000000000000000B20000005B436F6E
310
74656E745F54797065735D2E786D6C504B01021400140006080800B670623BBC1638F5EC0000007C010000080000000000000000000000000083010000636F72652E786D6C504B01021400140006080800B670623B55019EA25F0000007C000000070000000000000000000000000095020000636E782E786D6C504B010214
310
00140006080800B670623B3586FFB671010000D40300000C00000000000000000000000000190300006662782F636F72652E786D6C504B01021400140006080800B670623B4220A0FF7D0000009D0000000B00000000000000000000000000B40400006662782F636E782E786D6C504B01021400140006080800B670623B2F
310
A3FEDE290100001202000031000000000000000000000000005A0500006662782F45374635344235342D363743322D343832342D383044432D4334454645303536354442422F636F72652E786D6C504B01021400140006080800B670623B1B8617914E010000330300003000000000000000000000000000D2060000666278
310
2F45374635344235342D363743322D343832342D383044432D4334454645303536354442422F636E782E786D6C504B01021400140006080800B670623B29652116630500003C10000034000000000000000000000000006E0800006662782F45374635344235342D363743322D343832342D383044432D4334454645303536
310
354442422F6F626A656374732E786D6C504B01021400140006080000B670623B0000000000000000000000003500000000000000000000000000230E00006662782F45374635344235342D363743322D343832342D383044432D4334454645303536354442422F76657274696365732E62696E504B01021400140006080800
310
B670623BF270F13306000000040000003600000000000000000000000000760E00006662782F45374635344235342D363743322D343832342D383044432D4334454645303536354442422F747269616E676C65732E62696E504B01021400140006080000B670623B0000000000000000000000003700000000000000000000
310
000000D00E00006662782F45374635344235342D363743322D343832342D383044432D4334454645303536354442422F617474726962757465732E62696E504B01021400140006080800B670623B08DA0BD190000000410100003600000000000000000000000000250F00006662782F45374635344235342D363743322D34
310
3832342D383044432D4334454645303536354442422F6469726563746F72792E786D6C504B01021400140006080800B670623B6378F24DFF000000A00100003B00000000000000000000000000091000006662782F45374635344235342D363743322D343832342D383044432D4334454645303536354442422F7265736F75
310
726365732F636F72652E786D6C504B0506000000000E000E0080040000611100000000
  0
XRECORD
  5
78B
102
{ACAD_REACTORS
330
110
102
}
330
110
100
AcDbXrecord
280
     1
102
MATERIAL
148
0.0
149
0.0
149
0.0
 93
        0
 94
      127
282
     0
 72
     1
 77
     1
171
     1
175
     1
179
     1
273
     0
  0
XRECORD
  5
112
102
{ACAD_REACTORS
330
110
102
}
330
110
100
AcDbXrecord
280
     1
270
     1
271
     1
  0
XRECORD
  5
111
102
{ACAD_REACTORS
330
110
102
}
330
110
100
AcDbXrecord
280
     1
270
     1
271
     1
  0
XRECORD
  5
18A
102
{ACAD_REACTORS
330
110
102
}
330
110
100
AcDbXrecord
280
     1
 70
     0
 90
1778669749
  1
9BF507EE-FAF7-4A99-A33D-4EE51894BC40
310
504B03040A0000080000B670623B3DEE336E79000000790000001B0000006175746F6465736B2D64657369676E2D7061636B6167652E786D6C3C3F786D6C2076657273696F6E3D22312E302220656E636F64696E673D227574662D3822203F3E3C666F726D6174733E3C666F726D61743E687474703A2F2F736368656D612E
310
6175746F6465736B2E636F6D2F64657369676E2D7061636B6167652F323030393C2F666F726D61743E3C2F666F726D6174733E504B0304140006080800B670623BD486FD9CA0000000F4000000130000005B436F6E74656E745F54797065735D2E786D6C7D8EC10E82300C865F65E91D8A1E8C310C0EEA1BF002731658846E
310
D98AC1B77784ABF1D8FE5FBFBF75BBCE937A534CCEB38643598122B6FEE978D0B0485F9C41B54DDD7D022595594E1A469170414C76A4D9A4D207E29CF43ECE46F218070CC6BECC4078ACAA135ACF422C856C0E68EA1BF5669944DDD7BCDE7B1F8E415D77AECB980613C2E4AC91FC167A2B244592486606FC29C8FD7F045B9A
310
EF7053A7E60B504B0304140006080800B670623BCA089DFFEC0000007C01000008000000636F72652E786D6C8D90416E83301045AF62CDB632D8402020E32882F604BD80653BC44AB011B6AB1EBF262152BBEB6A467FFE9B197D76FA9EEFE84BAFDE38DB03CD08206DA553C64E3DC470C1474027CE56E7C22F1B202B66DDC3
310
260367D3EAE2B24BD2D9A06D48AA754AEFA2F05E0740F29E9A1EBCBCEA59642286E4F0B76C11F226269DD15797E0188D42CF2346A57DE662F40ABCAEC77628C6120F654571D50C04B7F5B9C1E3997CD4F550BE3745C3F20DE62C98F9755FAE5A04AD801784B498524C8A4F5A75E4D055873772EC0861F966FF03C545FD138A
310
C686B2D8DF7D621E384D8F3C069CE55B16A93C824A75CB8DFF00504B0304140006080800B670623B55019EA25F0000007C00000007000000636E782E786D6C4DCB3B0E80201045D1AD90E915ED2CF8AC45050C11660C8261F98AB1B07AC9C97D42D718D865D3E909258CFD00CCE24AC6E326A164D74DC0B4128928FF326038
310
472BA13128B1252AC747C6BAB984FC68F0B87FE8960A5C09FE86CFB69FBA01504B0304140006080800B670623B68FC0B7272010000D40300000C0000006662782F636F72652E786D6CC5535B6E833010BC8AE5DF0A6C1E8124328E22D29EA01770C0A128602363A31CBFCB234A53A555FA553EC09AD9F5CE8C31DB5DDA060D
310
D2F4B556190E7C8A9154852E6B5565D8D993B7C668C799D1DA7E29C3488956667884316795D1AE5BA0422B2B950554E9522EA0E87B69312A1A5864B82F3E642B7CE12C54F467BF13C55954D20F7CA0A18EB3DE1A1080E621E31BF3D3F1C2C88C73E65C5D2E6C5DC2B4FA544B8379921C36797888BC3C8A032F4E73EA6D927D
310
EA1DF6F42D49F2E8350D5346C666CE6CDD5ED515460A2B4BCC434A375E1078347C0FE22D5D6DE3D50B5D6F2965642CBF6B725DF96493AB958DC245EEDCD6631E809089F8E61622B2A81703E8219C913144F84C09DF070D8140C8561C9BAB8F3340832CAC363130A576376A108D933095FA747AD0CF0B46E64E983A6D0EAE1F
310
CE089F9EF1FB8E70D44255604258581E9D1D75B259C3125A278D37D80B52DAB4A279CEC62F0EFF44DDC43F9454E8469BFF5244960322CBEF41C6FBC83F01504B0304140006080800B670623B0F71DDB67E0000009D0000000B0000006662782F636E782E786D6C4DCCD10A83201886E15B91FFDCA54DB73F502386BB8F5816
310
32D3703976F9ABD1C18E3E78F87855FB990379BBFCF2296AE02706C4C5471A7C9C349475A408A4352AA7B4FEDD80C47E761A7606A3A69CCA72D0E0C6BE8475D3E0E3F3409428EA6B27A84079A782899AA2EC1A7AE3ECCC2FD858CB2D544655BFD2B67BD87C01504B0304140006080800B670623BE134B4FB28010000120200
310
00310000006662782F38353834323741342D343835462D343034322D383541392D4331303331363839454531452F636F72652E786D6C8D515B6EC32010BC0AE22B55850D0EA424C24451959EA0172086A42831583CAA1CBF503B52FB971F16CDCECC0EACD8DFC71BF836215AEF7A481A0C817183D7D65D7A98D3197108F652
310
04EFD31F1A044E8DA6871586525C82CFD3020DDE25E352419DD76601558C264130DCCAA58771F832A36A544E8511AFCDA486ABBA988634A55D7852C4144A00300FA927949C71DABD1D28A29C7D208A6987383B6CD13BC16BB2E1DBE3911C453B0BA5C8D9EA456E758963CFD684674DAA588A64C747FC2118958C86B2C3788B
310
0841B8FB247487D98EB257CC77188BB6D2FF89F2A49F1465EBD2BA5BE2CEB2082511EDDC9042FB7CBA3DC298FBE4430275DE2A9AE1054ADC60CC08E3A29D89E5F9C5714317C7987C28DFBBBA9E0A97B0D97643A568EB864AF95D5FA9759BF207504B0304140006080800B670623B1B8617914E010000330300003000000066
310
62782F38353834323741342D343835462D343034322D383541392D4331303331363839454531452F636E782E786D6CD593C16EC32010447F0571AD6CE3D489D20813A9877E410FBD62D82434182CC055F3F75D1292E692438FBD206B7698593D61BEFD1E2DF982108D773D6D6B460938E5B571FB9ECE6957AD29D90A1EBC4F
310
77364A9C1CA1A759A682EF839FA72269D8C9D92654AD71C72206887E0E0A22CAF926B15E498B01E0AA19451807D01A34B919F16B070157417138917400F2F6FA41FCF0092A45DEE414C19BDC21783E4BD39D891265658C3D8DEA00A3ACE59CBC8678ACB54CB26EEB6BD7839D7E9348BE70AD9C8321B9BCA7F9A4A26C542347
310
DEE050F09802D22BA6749A800A394DD62899107273365E3C82CFC6A55557BC06C10774B7ABE7AEC3B0F34CF06446280E154026D0542C187BA9DAB6628BF7B6DBB0E5A65B3EB1F58631DE64BBE083F7B65CC218087E22CABB042E51D1F2268F1FE12B3EA24D40D63E9CFE00120194D60B9D5BC67FE6D39CDF37E20AF817881F
310
504B0304140006080800B670623B5933D422630500003B100000340000006662782F38353834323741342D343835462D343034322D383541392D4331303331363839454531452F6F626A656374732E786D6CAD575B6FA33814FE2B887D0642934E9B156594264D158D3A534DD4D13E548A0C38942D60649B4EBABF7E3F8321
310
40924EF6928780CDF1B97EE762EFF32E4B8D37CA45C2F21BD3B547A641F39045491EDF98A5DC5AD7A6F1D9F73863B243661A39C9E88DA9B64DDF8B392B0BBD15D12D295339D85DDEFE618890E6D434C2940871638AF08566C426A5641115AF764424B1E3EDCE76ED9AB0CF36E6A47819302D08A7B984A6D8CFC1C5A89572FB
310
CB91E9F89EA3BEFB9EFAD754E3D3544E654F5F7E920B49F2F040D880CDD89D2CEE2E2EA7D6E56432B6269F2E5CEB7679BBB0DCABF168FE693E9FCEEEA6102C240727AD09A75BD3BF876F78127A4EFDA9D5582B7E4CA590E5390D2BFB6161A5B3E618D182E611E2985001691DAB47FDA5AB7CD3F93C566B2DB2BB7D9E55DD13
310
1D468DEECDB3AB290BFE8409E21C54704115AA6AFF68436BFC8DF65E0B184BF5B74418199194272435D224E084BF9B3E481589EFF5D828747285706581E9BB7B7E5D5D911ABFC6EE312DB7659A2A689A7E85EC0DF04FA5A8344BFEA2FCB834E8845895492EAFB541F2BDA0A63FF59C6AD3F7D4637CA13FD68E34B629891172
310
98597F1D183A57B9B75A98FE9765B05BAB7C3C2EBCE0ACA05C2AF8005A4DE09AA7F29216EB9E15397500C6F47CBE77CA7778FE2BD277AF0AE2C693DD6437D1522427B9D8329E2136F6A8FA19A3E6C56ADF0E5F50CF06D48734EDCEBF22F69C56D97EC138153F804B85E6FABFC7AFEFB32E523BE1F3BD372418E363EDCA7548
310
52949E8724474014288D94610BB57C1BEC4C7F854A89CA8E5324F55B871CBC78CE1BBEE3BFE68D6A5589EF3C730474506FCFA8FCF0659516D0ED04580EEA6425581B77CAE797FF4BCECC16EB2FEB926F49481F746159D06D922712BD730FDEAE42BD40F42C7AA5EF3F198F60E86110D6DD20645A9480B795CF95E3E3A659A8
310
C55E724F408873315335CFFB8584874484344D494E59D94869DB90C26A5B64F49C802CAC1D3ABE18A098D3B7444D123D8A9E5AE8F5214F0AE5B2B6E9B575DA3E61CBD3EA2B4009FA940524DD1305FB6A1FB294F14DF0BEA90BA109ECE1481FDC3FFAE8D60E75141700BE82725371B4873751B2DD960265F788137FACE6DD40
310
B575E4F0A5C99F46629D92131467A41EE11ABD8D4CCC039CA0AFB37C93A08B232B8F0AEFCA1E0A1015DF13FC83322B362463652ECF71D3A8B1A7D1BE65DE1D62C44F22C317D35F574FEB16153BA2D13E543D10A80E74C4A65E78A6B7CBCBD1D5DD9DB59C2DAFACC96C3AB566E3F1C29ADCDD5DBAD7D3C9ED7C822ED74F80A6
310
41755310DE4443F44A9E68373FADF6596BFA0F440AE7BECE2727AE9F4F2B1B53B1E7E00CF0DD1E5C65454A339A4BA2D0FBA05ED2EF0443458F47BDBFCA484CCFE0F2ED7E3DD0013B679C7B5499467F0ECEEADDB9CA85A34CE44B99053949D2C1416DB85DE4B136BB7165FBAC0B7AB3542BED4F8CA182A549847A1319316519
310
95A83A67147B9E5101C47487F2485F1ECE38FD568F839204296D3479219888530154036E6528FBFBC66F98E0D4107563A2D7D9AFF8D389681A08F58D89F22693900A3B407754734FC51C10C010D6D640809EE4718AC1BA3ED4AEDB53CA37283F68805A7E4B72CEB0A4EDEAD5DD8C14059A76AFAA56BA6901E13F32BC51C720
310
12AF41295B5BF61BAD3195181FB506E6B40F4C10AF5AF40EF9F5B159AE5DD1F43C72D635E94310D45C2D49785C5D0B94D3B54AB3C5A38349C0587D338AB48C11CBF339599C02CCA54A70A008A8D03C0B2201D5F9EFCF8F9CE12A9A19CB0410789EB32C63B95ECCF455D658BFE0621A3DA32C5075FB101723D77DAE867E7D0F
310
D90444509B44E2151B4DC2290B065803200FBAA9BE9D392A0603F2D5C2D00D6302A615680F66D2FA166E2079D4C551A54AB758161FCEFD4E450A14704CECFEDF504B0304140006080000B670623B000000000000000000000000350000006662782F38353834323741342D343835462D343034322D383541392D4331303331
310
363839454531452F76657274696365732E62696E504B0304140006080800B670623BF270F1330600000004000000360000006662782F38353834323741342D343835462D343034322D383541392D4331303331363839454531452F747269616E676C65732E62696E636660600000504B0304140006080000B670623B000000
310
000000000000000000370000006662782F38353834323741342D343835462D343034322D383541392D4331303331363839454531452F617474726962757465732E62696E504B0304140006080800B670623B08DA0BD19000000041010000360000006662782F38353834323741342D343835462D343034322D383541392D43
310
31303331363839454531452F6469726563746F72792E786D6C858F410AC3201045AF22B36F53E9A60B35CBEEBAE80D244E44489C6234F4F835464A48035D0DF398FF9F8AF63D0E6CC63039F212F8F9020C7D47C6792B21C5FE7403D62A1188E2E60C98D7234A5830286103A55745067B9D86B8A3CF9C7F90C11DE607FB1443
310
96D7B6A82D282E9A152AD114D5EF2CB866EEE831B8EEA07A7BB5A8D7D61A2BAAEB7FD5F70921FF497D00504B0304140006080800B670623BD9A3B367FE000000A00100003B0000006662782F38353834323741342D343835462D343034322D383541392D4331303331363839454531452F7265736F75726365732F636F7265
310
2E786D6C8D504B6E833010BD0A9A6D65B01D0201194711694FD00B586642AD043BF2A7EAF16B122AB5BB6E6646EFA3797AE2F8B5DC8A4FF4C1383B002B291468B59B8C9D0748F1420E501CA5F0CEC55F3228AC5A708015062966EFD27D83B4B3116DCCA875136EA00A012314FA968F0182FEC045952AC5AC08D7F2AEF455CD
310
58B232D3592745883E07289E4FD609D26370C96B0CA27AB252A464A64D63A6FCD35C0C7A904D73EE467EE664DCD58CD4ED4849D79C5A723ED1B7A61977AF2D6F45B59AA58866F9C9A83DAA8813484E6947182394BFB3BAA7FBBEDEBFD0434FA9A856F91F53BA4FFF342563E38E6F719FB60092E5200F428A6AED2BAF479979
310
AFDDCA6F504B010214000A0000080000B670623B3DEE336E79000000790000001B00000000000000000000000000000000006175746F6465736B2D64657369676E2D7061636B6167652E786D6C504B01021400140006080800B670623BD486FD9CA0000000F40000001300000000000000000000000000B20000005B436F6E
310
74656E745F54797065735D2E786D6C504B01021400140006080800B670623BCA089DFFEC0000007C010000080000000000000000000000000083010000636F72652E786D6C504B01021400140006080800B670623B55019EA25F0000007C000000070000000000000000000000000095020000636E782E786D6C504B010214
310
00140006080800B670623B68FC0B7272010000D40300000C00000000000000000000000000190300006662782F636F72652E786D6C504B01021400140006080800B670623B0F71DDB67E0000009D0000000B00000000000000000000000000B50400006662782F636E782E786D6C504B01021400140006080800B670623BE1
310
34B4FB280100001202000031000000000000000000000000005C0500006662782F38353834323741342D343835462D343034322D383541392D4331303331363839454531452F636F72652E786D6C504B01021400140006080800B670623B1B8617914E010000330300003000000000000000000000000000D3060000666278
310
2F38353834323741342D343835462D343034322D383541392D4331303331363839454531452F636E782E786D6C504B01021400140006080800B670623B5933D422630500003B10000034000000000000000000000000006F0800006662782F38353834323741342D343835462D343034322D383541392D4331303331363839
310
454531452F6F626A656374732E786D6C504B01021400140006080000B670623B0000000000000000000000003500000000000000000000000000240E00006662782F38353834323741342D343835462D343034322D383541392D4331303331363839454531452F76657274696365732E62696E504B01021400140006080800
310
B670623BF270F13306000000040000003600000000000000000000000000770E00006662782F38353834323741342D343835462D343034322D383541392D4331303331363839454531452F747269616E676C65732E62696E504B01021400140006080000B670623B0000000000000000000000003700000000000000000000
310
000000D10E00006662782F38353834323741342D343835462D343034322D383541392D4331303331363839454531452F617474726962757465732E62696E504B01021400140006080800B670623B08DA0BD190000000410100003600000000000000000000000000260F00006662782F38353834323741342D343835462D34
310
3034322D383541392D4331303331363839454531452F6469726563746F72792E786D6C504B01021400140006080800B670623BD9A3B367FE000000A00100003B000000000000000000000000000A1000006662782F38353834323741342D343835462D343034322D383541392D4331303331363839454531452F7265736F75
310
726365732F636F72652E786D6C504B0506000000000E000E0080040000611100000000
  0
XRECORD
  5
113
102
{ACAD_REACTORS
330
110
102
}
330
110
100
AcDbXrecord
280
     1
270
     1
271
     1
  0
XRECORD
  5
114
102
{ACAD_REACTORS
330
110
102
}
330
110
100
AcDbXrecord
280
     1
270
     1
271
     1
  0
XRECORD
  5
861
102
{ACAD_REACTORS
330
860
102
}
330
860
100
AcDbXrecord
280
     1
102
DISPLAYNAME
  1
Imperial24
102
FLAGS
 90
        0
  0
CELLSTYLEMAP
  5
823
102
{ACAD_REACTORS
330
104
102
}
330
104
100
AcDbCellStyleMap
 90
        3
300
CELLSTYLE
  1
TABLEFORMAT_BEGIN
 90
        5
170
     1
 91
        0
 92
    32768
 62
   257
 93
        1
300
CONTENTFORMAT
  1
CONTENTFORMAT_BEGIN
 90
        0
 91
        0
 92
      512
 93
        0
300

 40
0.0
140
1.0
 94
        5
 62
     0
340
11
144
0.25
309
CONTENTFORMAT_END
171
     1
301
MARGIN
  1
CELLMARGIN_BEGIN
 40
0.06
 40
0.06
 40
0.06
 40
0.06
 40
0.18
 40
0.18
309
CELLMARGIN_END
 94
        6
 95
        1
302
GRIDFORMAT
  1
GRIDFORMAT_BEGIN
 90
        0
 91
        1
 62
     0
 92
       -2
340
0
 93
        0
 40
0.045
309
GRIDFORMAT_END
 95
        2
302
GRIDFORMAT
  1
GRIDFORMAT_BEGIN
 90
        0
 91
        1
 62
     0
 92
       -2
340
0
 93
        0
 40
0.045
309
GRIDFORMAT_END
 95
        4
302
GRIDFORMAT
  1
GRIDFORMAT_BEGIN
 90
        0
 91
        1
 62
     0
 92
       -2
340
0
 93
        0
 40
0.045
309
GRIDFORMAT_END
 95
        8
302
GRIDFORMAT
  1
GRIDFORMAT_BEGIN
 90
        0
 91
        1
 62
     0
 92
       -2
340
0
 93
        0
 40
0.045
309
GRIDFORMAT_END
 95
       16
302
GRIDFORMAT
  1
GRIDFORMAT_BEGIN
 90
        0
 91
        1
 62
     0
 92
       -2
340
0
 93
        0
 40
0.045
309
GRIDFORMAT_END
 95
       32
302
GRIDFORMAT
  1
GRIDFORMAT_BEGIN
 90
        0
 91
        1
 62
     0
 92
       -2
340
0
 93
        0
 40
0.045
309
GRIDFORMAT_END
309
TABLEFORMAT_END
  1
CELLSTYLE_BEGIN
 90
        1
 91
        1
300
_TITLE
309
CELLSTYLE_END
300
CELLSTYLE
  1
TABLEFORMAT_BEGIN
 90
        5
170
     1
 91
        0
 92
        0
 62
   257
 93
        1
300
CONTENTFORMAT
  1
CONTENTFORMAT_BEGIN
 90
        0
 91
        0
 92
      512
 93
        0
300

 40
0.0
140
1.0
 94
        5
 62
     0
340
11
144
0.18
309
CONTENTFORMAT_END
171
     1
301
MARGIN
  1
CELLMARGIN_BEGIN
 40
0.06
 40
0.06
 40
0.06
 40
0.06
 40
0.18
 40
0.18
309
CELLMARGIN_END
 94
        6
 95
        1
302
GRIDFORMAT
  1
GRIDFORMAT_BEGIN
 90
        0
 91
        1
 62
     0
 92
       -2
340
0
 93
        0
 40
0.045
309
GRIDFORMAT_END
 95
        2
302
GRIDFORMAT
  1
GRIDFORMAT_BEGIN
 90
        0
 91
        1
 62
     0
 92
       -2
340
0
 93
        0
 40
0.045
309
GRIDFORMAT_END
 95
        4
302
GRIDFORMAT
  1
GRIDFORMAT_BEGIN
 90
        0
 91
        1
 62
     0
 92
       -2
340
0
 93
        0
 40
0.045
309
GRIDFORMAT_END
 95
        8
302
GRIDFORMAT
  1
GRIDFORMAT_BEGIN
 90
        0
 91
        1
 62
     0
 92
       -2
340
0
 93
        0
 40
0.045
309
GRIDFORMAT_END
 95
       16
302
GRIDFORMAT
  1
GRIDFORMAT_BEGIN
 90
        0
 91
        1
 62
     0
 92
       -2
340
0
 93
        0
 40
0.045
309
GRIDFORMAT_END
 95
       32
302
GRIDFORMAT
  1
GRIDFORMAT_BEGIN
 90
        0
 91
        1
 62
     0
 92
       -2
340
0
 93
        0
 40
0.045
309
GRIDFORMAT_END
309
TABLEFORMAT_END
  1
CELLSTYLE_BEGIN
 90
        2
 91
        1
300
_HEADER
309
CELLSTYLE_END
300
CELLSTYLE
  1
TABLEFORMAT_BEGIN
 90
        5
170
     1
 91
        0
 92
        0
 62
   257
 93
        1
300
CONTENTFORMAT
  1
CONTENTFORMAT_BEGIN
 90
        0
 91
        0
 92
      512
 93
        0
300

 40
0.0
140
1.0
 94
        2
 62
     0
340
11
144
0.18
309
CONTENTFORMAT_END
171
     1
301
MARGIN
  1
CELLMARGIN_BEGIN
 40
0.06
 40
0.06
 40
0.06
 40
0.06
 40
0.18
 40
0.18
309
CELLMARGIN_END
 94
        6
 95
        1
302
GRIDFORMAT
  1
GRIDFORMAT_BEGIN
 90
        0
 91
        1
 62
     0
 92
       -2
340
0
 93
        0
 40
0.045
309
GRIDFORMAT_END
 95
        2
302
GRIDFORMAT
  1
GRIDFORMAT_BEGIN
 90
        0
 91
        1
 62
     0
 92
       -2
340
0
 93
        0
 40
0.045
309
GRIDFORMAT_END
 95
        4
302
GRIDFORMAT
  1
GRIDFORMAT_BEGIN
 90
        0
 91
        1
 62
     0
 92
       -2
340
0
 93
        0
 40
0.045
309
GRIDFORMAT_END
 95
        8
302
GRIDFORMAT
  1
GRIDFORMAT_BEGIN
 90
        0
 91
        1
 62
     0
 92
       -2
340
0
 93
        0
 40
0.045
309
GRIDFORMAT_END
 95
       16
302
GRIDFORMAT
  1
GRIDFORMAT_BEGIN
 90
        0
 91
        1
 62
     0
 92
       -2
340
0
 93
        0
 40
0.045
309
GRIDFORMAT_END
 95
       32
302
GRIDFORMAT
  1
GRIDFORMAT_BEGIN
 90
        0
 91
        1
 62
     0
 92
       -2
340
0
 93
        0
 40
0.045
309
GRIDFORMAT_END
309
TABLEFORMAT_END
  1
CELLSTYLE_BEGIN
 90
        3
 91
        2
300
_DATA
309
CELLSTYLE_END
  0
XRECORD
  5
82F
102
{ACAD_REACTORS
330
104
102
}
330
104
100
AcDbXrecord
280
     1
102
ACAD_ROUNDTRIP_PRE2007_TABLESTYLE
 90
      512
 91
        0
  1

 92
      512
 93
        0
  2

 94
      512
 95
        0
  3

  0
XRECORD
  5
83B
102
{ACAD_REACTORS
330
83A
102
}
330
83A
100
AcDbXrecord
280
     1
102
RTVSPost2010Prop28
280
     1
102
RTVSPost2010PropOp28
 70
     1
102
RTVSPost2010Prop29
280
     1
102
RTVSPost2010PropOp29
 70
     1
102
RTVSPost2010Prop30
280
     0
102
RTVSPost2010PropOp30
 70
     1
102
RTVSPost2010Prop31
280
     0
102
RTVSPost2010PropOp31
 70
     1
102
RTVSPost2010Prop32
280
     0
102
RTVSPost2010PropOp32
 70
     1
102
RTVSPost2010Prop33
280
     0
102
RTVSPost2010PropOp33
 70
     1
102
RTVSPost2010Prop34
280
     0
102
RTVSPost2010PropOp34
 70
     1
102
RTVSPost2010Prop35
280
     0
102
RTVSPost2010PropOp35
 70
     1
102
RTVSPost2010Prop36
280
     0
102
RTVSPost2010PropOp36
 70
     1
102
RTVSPost2010Prop37
 90
       50
102
RTVSPost2010PropOp37
 70
     1
102
RTVSPost2010Prop38
140
0.0
102
RTVSPost2010PropOp38
 70
     1
102
RTVSPost2010Prop39
140
1.0
102
RTVSPost2010PropOp39
 70
     1
102
RTVSPost2010Prop40
 90
        0
102
RTVSPost2010PropOp40
 70
     1
102
RTVSPost2010Prop41ColorIndex
 90
       18
102
RTVSPost2010Prop41ColorRGB
 90
        0
102
RTVSPost2010PropOp41
 70
     1
102
RTVSPost2010Prop42
 90
       50
102
RTVSPost2010PropOp42
 70
     1
102
RTVSPost2010Prop43
 90
        3
102
RTVSPost2010PropOp43
 70
     1
102
RTVSPost2010Prop44ColorIndex
 90
        5
102
RTVSPost2010Prop44ColorRGB
 90
      255
102
RTVSPost2010PropOp44
 70
     1
102
RTVSPost2010Prop45
280
     0
102
RTVSPost2010PropOp45
 70
     1
102
RTVSPost2010Prop46
 90
       50
102
RTVSPost2010PropOp46
 70
     1
102
RTVSPost2010Prop47
 90
       50
102
RTVSPost2010PropOp47
 70
     1
102
RTVSPost2010Prop48
 90
       50
102
RTVSPost2010PropOp48
 70
     1
102
RTVSPost2010Prop49
280
     0
102
RTVSPost2010PropOp49
 70
     1
102
RTVSPost2010Prop50
 90
       50
102
RTVSPost2010PropOp50
 70
     1
102
RTVSPost2010Prop51ColorIndex
 90
      256
102
RTVSPost2010Prop51ColorRGB
 90
-16777216
102
RTVSPost2010PropOp51
 70
     0
102
RTVSPost2010Prop52
140
1.0
102
RTVSPost2010PropOp52
 70
     0
102
RTVSPost2010Prop53
 90
        2
102
RTVSPost2010PropOp53
 70
     1
102
RTVSPost2010Prop54
  1
strokes_ogs.tif
102
RTVSPost2010PropOp54
 70
     1
102
RTVSPost2010Prop55
280
     0
102
RTVSPost2010PropOp55
 70
     1
102
RTVSPost2010Prop56
140
1.0
102
RTVSPost2010PropOp56
 70
     1
102
RTVSPost2010Prop57
140
1.0
102
RTVSPost2010PropOp57
 70
     1
102
RTVSPropertyOp0
 70
     1
102
RTVSPropertyOp1
 70
     1
102
RTVSPropertyOp2
 70
     1
102
RTVSPropertyOp3
 70
     1
102
RTVSPropertyOp4
 70
     1
102
RTVSPropertyOp5
 70
     1
102
RTVSPropertyOp6
 70
     1
102
RTVSPropertyOp7
 70
     1
102
RTVSPropertyOp8
 70
     1
102
RTVSPropertyOp9
 70
     1
102
RTVSPropertyOp10
 70
     1
102
RTVSPropertyOp11
 70
     1
102
RTVSPropertyOp12
 70
     1
102
RTVSPropertyOp13
 70
     1
102
RTVSPropertyOp14
 70
     1
102
RTVSPropertyOp15
 70
     1
102
RTVSPropertyOp16
 70
     1
102
RTVSPropertyOp17
 70
     1
102
RTVSPropertyOp18
 70
     1
102
RTVSPropertyOp19
 70
     1
102
RTVSPropertyOp20
 70
     1
102
RTVSPropertyOp21
 70
     1
102
RTVSPropertyOp22
 70
     1
102
RTVSPropertyOp23
 70
     1
102
RTVSPropertyOp24
 70
     1
102
RTVSPropertyOp25
 70
     1
102
RTVSPropertyOp26
 70
     1
102
RTVSPropertyOp27
 70
     1
102
RTVSPropertyOp28
 70
     1
102
RTVSPropertyOp29
 70
     1
102
RTVSPropertyOp30
 70
     1
102
RTVSPropertyOp31
 70
     1
102
RTVSPropertyOp32
 70
     1
102
RTVSPropertyOp33
 70
     1
102
RTVSPropertyOp34
 70
     1
102
RTVSPropertyOp35
 70
     1
102
RTVSPropertyOp36
 70
     1
102
RTVSPropertyOp37
 70
     1
102
RTVSPropertyOp38
 70
     1
102
RTVSPropertyOp39
 70
     1
102
RTVSPropertyOp40
 70
     1
102
RTVSPropertyOp41
 70
     1
102
RTVSPropertyOp42
 70
     1
102
RTVSPropertyOp43
 70
     1
102
RTVSPropertyOp44
 70
     1
102
RTVSPropertyOp45
 70
     1
102
RTVSPropertyOp46
 70
     1
102
RTVSPropertyOp47
 70
     1
102
RTVSPropertyOp48
 70
     1
102
RTVSPropertyOp49
 70
     1
102
RTVSPropertyOp50
 70
     1
102
RTVSPropertyOp51
 70
     0
102
RTVSPropertyOp52
 70
     0
102
RTVSPropertyOp53
 70
     1
102
RTVSPropertyOp54
 70
     1
102
RTVSPropertyOp55
 70
     1
102
RTVSPropertyOp56
 70
     1
102
RTVSPropertyOp57
 70
     1
102
RTVSPropertyOp58
 70
     1
102
RTVSPropertyOp59
 70
     1
102
RTVSPropertyOp60
 70
     1
102
RTVSPropertyOp61
 70
     1
102
RTVSPropertyOp62
 70
     1
  0
XRECORD
  5
865
102
{ACAD_REACTORS
330
864
102
}
330
864
100
AcDbXrecord
280
     1
102
RTVSPost2010Prop28
280
     0
102
RTVSPost2010PropOp28
 70
     1
102
RTVSPost2010Prop29
280
     1
102
RTVSPost2010PropOp29
 70
     1
102
RTVSPost2010Prop30
280
     1
102
RTVSPost2010PropOp30
 70
     1
102
RTVSPost2010Prop31
280
     0
102
RTVSPost2010PropOp31
 70
     1
102
RTVSPost2010Prop32
280
     0
102
RTVSPost2010PropOp32
 70
     1
102
RTVSPost2010Prop33
280
     0
102
RTVSPost2010PropOp33
 70
     1
102
RTVSPost2010Prop34
280
     0
102
RTVSPost2010PropOp34
 70
     1
102
RTVSPost2010Prop35
280
     0
102
RTVSPost2010PropOp35
 70
     1
102
RTVSPost2010Prop36
280
     0
102
RTVSPost2010PropOp36
 70
     1
102
RTVSPost2010Prop37
 90
       50
102
RTVSPost2010PropOp37
 70
     1
102
RTVSPost2010Prop38
140
0.0
102
RTVSPost2010PropOp38
 70
     1
102
RTVSPost2010Prop39
140
1.0
102
RTVSPost2010PropOp39
 70
     1
102
RTVSPost2010Prop40
 90
        0
102
RTVSPost2010PropOp40
 70
     1
102
RTVSPost2010Prop41ColorIndex
 90
       18
102
RTVSPost2010Prop41ColorRGB
 90
        0
102
RTVSPost2010PropOp41
 70
     1
102
RTVSPost2010Prop42
 90
       50
102
RTVSPost2010PropOp42
 70
     1
102
RTVSPost2010Prop43
 90
        3
102
RTVSPost2010PropOp43
 70
     1
102
RTVSPost2010Prop44ColorIndex
 90
        5
102
RTVSPost2010Prop44ColorRGB
 90
      255
102
RTVSPost2010PropOp44
 70
     1
102
RTVSPost2010Prop45
280
     0
102
RTVSPost2010PropOp45
 70
     1
102
RTVSPost2010Prop46
 90
       50
102
RTVSPost2010PropOp46
 70
     1
102
RTVSPost2010Prop47
 90
       50
102
RTVSPost2010PropOp47
 70
     1
102
RTVSPost2010Prop48
 90
       50
102
RTVSPost2010PropOp48
 70
     1
102
RTVSPost2010Prop49
280
     0
102
RTVSPost2010PropOp49
 70
     1
102
RTVSPost2010Prop50
 90
       50
102
RTVSPost2010PropOp50
 70
     1
102
RTVSPost2010Prop51ColorIndex
 90
      256
102
RTVSPost2010Prop51ColorRGB
 90
-16777216
102
RTVSPost2010PropOp51
 70
     0
102
RTVSPost2010Prop52
140
1.0
102
RTVSPost2010PropOp52
 70
     0
102
RTVSPost2010Prop53
 90
        2
102
RTVSPost2010PropOp53
 70
     1
102
RTVSPost2010Prop54
  1
strokes_ogs.tif
102
RTVSPost2010PropOp54
 70
     1
102
RTVSPost2010Prop55
280
     0
102
RTVSPost2010PropOp55
 70
     1
102
RTVSPost2010Prop56
140
1.0
102
RTVSPost2010PropOp56
 70
     1
102
RTVSPost2010Prop57
140
1.0
102
RTVSPost2010PropOp57
 70
     1
102
RTVSPropertyOp0
 70
     1
102
RTVSPropertyOp1
 70
     1
102
RTVSPropertyOp2
 70
     1
102
RTVSPropertyOp3
 70
     1
102
RTVSPropertyOp4
 70
     1
102
RTVSPropertyOp5
 70
     1
102
RTVSPropertyOp6
 70
     1
102
RTVSPropertyOp7
 70
     1
102
RTVSPropertyOp8
 70
     1
102
RTVSPropertyOp9
 70
     1
102
RTVSPropertyOp10
 70
     1
102
RTVSPropertyOp11
 70
     1
102
RTVSPropertyOp12
 70
     1
102
RTVSPropertyOp13
 70
     1
102
RTVSPropertyOp14
 70
     1
102
RTVSPropertyOp15
 70
     1
102
RTVSPropertyOp16
 70
     1
102
RTVSPropertyOp17
 70
     1
102
RTVSPropertyOp18
 70
     1
102
RTVSPropertyOp19
 70
     1
102
RTVSPropertyOp20
 70
     1
102
RTVSPropertyOp21
 70
     1
102
RTVSPropertyOp22
 70
     1
102
RTVSPropertyOp23
 70
     1
102
RTVSPropertyOp24
 70
     1
102
RTVSPropertyOp25
 70
     1
102
RTVSPropertyOp26
 70
     1
102
RTVSPropertyOp27
 70
     1
102
RTVSPropertyOp28
 70
     1
102
RTVSPropertyOp29
 70
     1
102
RTVSPropertyOp30
 70
     1
102
RTVSPropertyOp31
 70
     1
102
RTVSPropertyOp32
 70
     1
102
RTVSPropertyOp33
 70
     1
102
RTVSPropertyOp34
 70
     1
102
RTVSPropertyOp35
 70
     1
102
RTVSPropertyOp36
 70
     1
102
RTVSPropertyOp37
 70
     1
102
RTVSPropertyOp38
 70
     1
102
RTVSPropertyOp39
 70
     1
102
RTVSPropertyOp40
 70
     1
102
RTVSPropertyOp41
 70
     1
102
RTVSPropertyOp42
 70
     1
102
RTVSPropertyOp43
 70
     1
102
RTVSPropertyOp44
 70
     1
102
RTVSPropertyOp45
 70
     1
102
RTVSPropertyOp46
 70
     1
102
RTVSPropertyOp47
 70
     1
102
RTVSPropertyOp48
 70
     1
102
RTVSPropertyOp49
 70
     1
102
RTVSPropertyOp50
 70
     1
102
RTVSPropertyOp51
 70
     0
102
RTVSPropertyOp52
 70
     0
102
RTVSPropertyOp53
 70
     1
102
RTVSPropertyOp54
 70
     1
102
RTVSPropertyOp55
 70
     1
102
RTVSPropertyOp56
 70
     1
102
RTVSPropertyOp57
 70
     1
102
RTVSPropertyOp58
 70
     1
102
RTVSPropertyOp59
 70
     1
102
RTVSPropertyOp60
 70
     1
102
RTVSPropertyOp61
 70
     1
102
RTVSPropertyOp62
 70
     1
  0
XRECORD
  5
839
102
{ACAD_REACTORS
330
838
102
}
330
838
100
AcDbXrecord
280
     1
102
RTVSPost2010Prop28
280
     0
102
RTVSPost2010PropOp28
 70
     1
102
RTVSPost2010Prop29
280
     1
102
RTVSPost2010PropOp29
 70
     1
102
RTVSPost2010Prop30
280
     1
102
RTVSPost2010PropOp30
 70
     1
102
RTVSPost2010Prop31
280
     0
102
RTVSPost2010PropOp31
 70
     1
102
RTVSPost2010Prop32
280
     0
102
RTVSPost2010PropOp32
 70
     1
102
RTVSPost2010Prop33
280
     0
102
RTVSPost2010PropOp33
 70
     1
102
RTVSPost2010Prop34
280
     0
102
RTVSPost2010PropOp34
 70
     1
102
RTVSPost2010Prop35
280
     0
102
RTVSPost2010PropOp35
 70
     1
102
RTVSPost2010Prop36
280
     0
102
RTVSPost2010PropOp36
 70
     1
102
RTVSPost2010Prop37
 90
       50
102
RTVSPost2010PropOp37
 70
     1
102
RTVSPost2010Prop38
140
0.0
102
RTVSPost2010PropOp38
 70
     1
102
RTVSPost2010Prop39
140
1.0
102
RTVSPost2010PropOp39
 70
     1
102
RTVSPost2010Prop40
 90
        0
102
RTVSPost2010PropOp40
 70
     1
102
RTVSPost2010Prop41ColorIndex
 90
       18
102
RTVSPost2010Prop41ColorRGB
 90
        0
102
RTVSPost2010PropOp41
 70
     1
102
RTVSPost2010Prop42
 90
       50
102
RTVSPost2010PropOp42
 70
     1
102
RTVSPost2010Prop43
 90
        3
102
RTVSPost2010PropOp43
 70
     1
102
RTVSPost2010Prop44ColorIndex
 90
        5
102
RTVSPost2010Prop44ColorRGB
 90
      255
102
RTVSPost2010PropOp44
 70
     1
102
RTVSPost2010Prop45
280
     0
102
RTVSPost2010PropOp45
 70
     1
102
RTVSPost2010Prop46
 90
       50
102
RTVSPost2010PropOp46
 70
     1
102
RTVSPost2010Prop47
 90
       50
102
RTVSPost2010PropOp47
 70
     1
102
RTVSPost2010Prop48
 90
       50
102
RTVSPost2010PropOp48
 70
     1
102
RTVSPost2010Prop49
280
     0
102
RTVSPost2010PropOp49
 70
     1
102
RTVSPost2010Prop50
 90
       50
102
RTVSPost2010PropOp50
 70
     1
102
RTVSPost2010Prop51ColorIndex
 90
      256
102
RTVSPost2010Prop51ColorRGB
 90
-16777216
102
RTVSPost2010PropOp51
 70
     0
102
RTVSPost2010Prop52
140
1.0
102
RTVSPost2010PropOp52
 70
     0
102
RTVSPost2010Prop53
 90
        2
102
RTVSPost2010PropOp53
 70
     1
102
RTVSPost2010Prop54
  1
strokes_ogs.tif
102
RTVSPost2010PropOp54
 70
     1
102
RTVSPost2010Prop55
280
     0
102
RTVSPost2010PropOp55
 70
     1
102
RTVSPost2010Prop56
140
1.0
102
RTVSPost2010PropOp56
 70
     1
102
RTVSPost2010Prop57
140
1.0
102
RTVSPost2010PropOp57
 70
     1
102
RTVSPropertyOp0
 70
     1
102
RTVSPropertyOp1
 70
     1
102
RTVSPropertyOp2
 70
     1
102
RTVSPropertyOp3
 70
     1
102
RTVSPropertyOp4
 70
     1
102
RTVSPropertyOp5
 70
     1
102
RTVSPropertyOp6
 70
     1
102
RTVSPropertyOp7
 70
     1
102
RTVSPropertyOp8
 70
     1
102
RTVSPropertyOp9
 70
     1
102
RTVSPropertyOp10
 70
     1
102
RTVSPropertyOp11
 70
     1
102
RTVSPropertyOp12
 70
     1
102
RTVSPropertyOp13
 70
     1
102
RTVSPropertyOp14
 70
     1
102
RTVSPropertyOp15
 70
     1
102
RTVSPropertyOp16
 70
     1
102
RTVSPropertyOp17
 70
     1
102
RTVSPropertyOp18
 70
     1
102
RTVSPropertyOp19
 70
     1
102
RTVSPropertyOp20
 70
     1
102
RTVSPropertyOp21
 70
     1
102
RTVSPropertyOp22
 70
     1
102
RTVSPropertyOp23
 70
     1
102
RTVSPropertyOp24
 70
     1
102
RTVSPropertyOp25
 70
     1
102
RTVSPropertyOp26
 70
     1
102
RTVSPropertyOp27
 70
     1
102
RTVSPropertyOp28
 70
     1
102
RTVSPropertyOp29
 70
     1
102
RTVSPropertyOp30
 70
     1
102
RTVSPropertyOp31
 70
     1
102
RTVSPropertyOp32
 70
     1
102
RTVSPropertyOp33
 70
     1
102
RTVSPropertyOp34
 70
     1
102
RTVSPropertyOp35
 70
     1
102
RTVSPropertyOp36
 70
     1
102
RTVSPropertyOp37
 70
     1
102
RTVSPropertyOp38
 70
     1
102
RTVSPropertyOp39
 70
     1
102
RTVSPropertyOp40
 70
     1
102
RTVSPropertyOp41
 70
     1
102
RTVSPropertyOp42
 70
     1
102
RTVSPropertyOp43
 70
     1
102
RTVSPropertyOp44
 70
     1
102
RTVSPropertyOp45
 70
     1
102
RTVSPropertyOp46
 70
     1
102
RTVSPropertyOp47
 70
     1
102
RTVSPropertyOp48
 70
     1
102
RTVSPropertyOp49
 70
     1
102
RTVSPropertyOp50
 70
     1
102
RTVSPropertyOp51
 70
     0
102
RTVSPropertyOp52
 70
     0
102
RTVSPropertyOp53
 70
     1
102
RTVSPropertyOp54
 70
     1
102
RTVSPropertyOp55
 70
     1
102
RTVSPropertyOp56
 70
     1
102
RTVSPropertyOp57
 70
     1
102
RTVSPropertyOp58
 70
     1
102
RTVSPropertyOp59
 70
     1
102
RTVSPropertyOp60
 70
     1
102
RTVSPropertyOp61
 70
     1
102
RTVSPropertyOp62
 70
     1
  0
XRECORD
  5
847
102
{ACAD_REACTORS
330
846
102
}
330
846
100
AcDbXrecord
280
     1
102
RTVSPost2010Prop28
280
     0
102
RTVSPost2010PropOp28
 70
     1
102
RTVSPost2010Prop29
280
     1
102
RTVSPost2010PropOp29
 70
     1
102
RTVSPost2010Prop30
280
     1
102
RTVSPost2010PropOp30
 70
     1
102
RTVSPost2010Prop31
280
     0
102
RTVSPost2010PropOp31
 70
     1
102
RTVSPost2010Prop32
280
     0
102
RTVSPost2010PropOp32
 70
     1
102
RTVSPost2010Prop33
280
     0
102
RTVSPost2010PropOp33
 70
     1
102
RTVSPost2010Prop34
280
     0
102
RTVSPost2010PropOp34
 70
     1
102
RTVSPost2010Prop35
280
     0
102
RTVSPost2010PropOp35
 70
     1
102
RTVSPost2010Prop36
280
     0
102
RTVSPost2010PropOp36
 70
     1
102
RTVSPost2010Prop37
 90
       50
102
RTVSPost2010PropOp37
 70
     1
102
RTVSPost2010Prop38
140
0.0
102
RTVSPost2010PropOp38
 70
     1
102
RTVSPost2010Prop39
140
1.0
102
RTVSPost2010PropOp39
 70
     1
102
RTVSPost2010Prop40
 90
        0
102
RTVSPost2010PropOp40
 70
     1
102
RTVSPost2010Prop41ColorIndex
 90
       18
102
RTVSPost2010Prop41ColorRGB
 90
        0
102
RTVSPost2010PropOp41
 70
     1
102
RTVSPost2010Prop42
 90
       50
102
RTVSPost2010PropOp42
 70
     1
102
RTVSPost2010Prop43
 90
        3
102
RTVSPost2010PropOp43
 70
     1
102
RTVSPost2010Prop44ColorIndex
 90
        5
102
RTVSPost2010Prop44ColorRGB
 90
      255
102
RTVSPost2010PropOp44
 70
     1
102
RTVSPost2010Prop45
280
     0
102
RTVSPost2010PropOp45
 70
     1
102
RTVSPost2010Prop46
 90
       50
102
RTVSPost2010PropOp46
 70
     1
102
RTVSPost2010Prop47
 90
       50
102
RTVSPost2010PropOp47
 70
     1
102
RTVSPost2010Prop48
 90
       50
102
RTVSPost2010PropOp48
 70
     1
102
RTVSPost2010Prop49
280
     0
102
RTVSPost2010PropOp49
 70
     1
102
RTVSPost2010Prop50
 90
       50
102
RTVSPost2010PropOp50
 70
     1
102
RTVSPost2010Prop51ColorIndex
 90
      256
102
RTVSPost2010Prop51ColorRGB
 90
-16777216
102
RTVSPost2010PropOp51
 70
     0
102
RTVSPost2010Prop52
140
1.0
102
RTVSPost2010PropOp52
 70
     0
102
RTVSPost2010Prop53
 90
        2
102
RTVSPost2010PropOp53
 70
     1
102
RTVSPost2010Prop54
  1
strokes_ogs.tif
102
RTVSPost2010PropOp54
 70
     1
102
RTVSPost2010Prop55
280
     0
102
RTVSPost2010PropOp55
 70
     1
102
RTVSPost2010Prop56
140
1.0
102
RTVSPost2010PropOp56
 70
     1
102
RTVSPost2010Prop57
140
1.0
102
RTVSPost2010PropOp57
 70
     1
102
RTVSPropertyOp0
 70
     1
102
RTVSPropertyOp1
 70
     1
102
RTVSPropertyOp2
 70
     1
102
RTVSPropertyOp3
 70
     1
102
RTVSPropertyOp4
 70
     1
102
RTVSPropertyOp5
 70
     1
102
RTVSPropertyOp6
 70
     1
102
RTVSPropertyOp7
 70
     1
102
RTVSPropertyOp8
 70
     1
102
RTVSPropertyOp9
 70
     1
102
RTVSPropertyOp10
 70
     1
102
RTVSPropertyOp11
 70
     1
102
RTVSPropertyOp12
 70
     1
102
RTVSPropertyOp13
 70
     1
102
RTVSPropertyOp14
 70
     1
102
RTVSPropertyOp15
 70
     1
102
RTVSPropertyOp16
 70
     1
102
RTVSPropertyOp17
 70
     1
102
RTVSPropertyOp18
 70
     1
102
RTVSPropertyOp19
 70
     1
102
RTVSPropertyOp20
 70
     1
102
RTVSPropertyOp21
 70
     1
102
RTVSPropertyOp22
 70
     1
102
RTVSPropertyOp23
 70
     1
102
RTVSPropertyOp24
 70
     1
102
RTVSPropertyOp25
 70
     1
102
RTVSPropertyOp26
 70
     1
102
RTVSPropertyOp27
 70
     1
102
RTVSPropertyOp28
 70
     1
102
RTVSPropertyOp29
 70
     1
102
RTVSPropertyOp30
 70
     1
102
RTVSPropertyOp31
 70
     1
102
RTVSPropertyOp32
 70
     1
102
RTVSPropertyOp33
 70
     1
102
RTVSPropertyOp34
 70
     1
102
RTVSPropertyOp35
 70
     1
102
RTVSPropertyOp36
 70
     1
102
RTVSPropertyOp37
 70
     1
102
RTVSPropertyOp38
 70
     1
102
RTVSPropertyOp39
 70
     1
102
RTVSPropertyOp40
 70
     1
102
RTVSPropertyOp41
 70
     1
102
RTVSPropertyOp42
 70
     1
102
RTVSPropertyOp43
 70
     1
102
RTVSPropertyOp44
 70
     1
102
RTVSPropertyOp45
 70
     1
102
RTVSPropertyOp46
 70
     1
102
RTVSPropertyOp47
 70
     1
102
RTVSPropertyOp48
 70
     1
102
RTVSPropertyOp49
 70
     1
102
RTVSPropertyOp50
 70
     1
102
RTVSPropertyOp51
 70
     0
102
RTVSPropertyOp52
 70
     0
102
RTVSPropertyOp53
 70
     1
102
RTVSPropertyOp54
 70
     1
102
RTVSPropertyOp55
 70
     1
102
RTVSPropertyOp56
 70
     1
102
RTVSPropertyOp57
 70
     1
102
RTVSPropertyOp58
 70
     1
102
RTVSPropertyOp59
 70
     1
102
RTVSPropertyOp60
 70
     1
102
RTVSPropertyOp61
 70
     1
102
RTVSPropertyOp62
 70
     1
  0
XRECORD
  5
84F
102
{ACAD_REACTORS
330
84E
102
}
330
84E
100
AcDbXrecord
280
     1
102
RTVSPost2010Prop28
280
     0
102
RTVSPost2010PropOp28
 70
     1
102
RTVSPost2010Prop29
280
     1
102
RTVSPost2010PropOp29
 70
     1
102
RTVSPost2010Prop30
280
     1
102
RTVSPost2010PropOp30
 70
     1
102
RTVSPost2010Prop31
280
     0
102
RTVSPost2010PropOp31
 70
     1
102
RTVSPost2010Prop32
280
     0
102
RTVSPost2010PropOp32
 70
     1
102
RTVSPost2010Prop33
280
     0
102
RTVSPost2010PropOp33
 70
     1
102
RTVSPost2010Prop34
280
     0
102
RTVSPost2010PropOp34
 70
     1
102
RTVSPost2010Prop35
280
     0
102
RTVSPost2010PropOp35
 70
     1
102
RTVSPost2010Prop36
280
     0
102
RTVSPost2010PropOp36
 70
     1
102
RTVSPost2010Prop37
 90
       50
102
RTVSPost2010PropOp37
 70
     1
102
RTVSPost2010Prop38
140
0.0
102
RTVSPost2010PropOp38
 70
     1
102
RTVSPost2010Prop39
140
1.0
102
RTVSPost2010PropOp39
 70
     1
102
RTVSPost2010Prop40
 90
        0
102
RTVSPost2010PropOp40
 70
     1
102
RTVSPost2010Prop41ColorIndex
 90
       18
102
RTVSPost2010Prop41ColorRGB
 90
        0
102
RTVSPost2010PropOp41
 70
     1
102
RTVSPost2010Prop42
 90
       50
102
RTVSPost2010PropOp42
 70
     1
102
RTVSPost2010Prop43
 90
        3
102
RTVSPost2010PropOp43
 70
     1
102
RTVSPost2010Prop44ColorIndex
 90
        5
102
RTVSPost2010Prop44ColorRGB
 90
      255
102
RTVSPost2010PropOp44
 70
     1
102
RTVSPost2010Prop45
280
     0
102
RTVSPost2010PropOp45
 70
     1
102
RTVSPost2010Prop46
 90
       50
102
RTVSPost2010PropOp46
 70
     1
102
RTVSPost2010Prop47
 90
       50
102
RTVSPost2010PropOp47
 70
     1
102
RTVSPost2010Prop48
 90
       50
102
RTVSPost2010PropOp48
 70
     1
102
RTVSPost2010Prop49
280
     0
102
RTVSPost2010PropOp49
 70
     1
102
RTVSPost2010Prop50
 90
       50
102
RTVSPost2010PropOp50
 70
     1
102
RTVSPost2010Prop51ColorIndex
 90
      256
102
RTVSPost2010Prop51ColorRGB
 90
-16777216
102
RTVSPost2010PropOp51
 70
     0
102
RTVSPost2010Prop52
140
1.0
102
RTVSPost2010PropOp52
 70
     0
102
RTVSPost2010Prop53
 90
        2
102
RTVSPost2010PropOp53
 70
     1
102
RTVSPost2010Prop54
  1
strokes_ogs.tif
102
RTVSPost2010PropOp54
 70
     1
102
RTVSPost2010Prop55
280
     0
102
RTVSPost2010PropOp55
 70
     1
102
RTVSPost2010Prop56
140
1.0
102
RTVSPost2010PropOp56
 70
     1
102
RTVSPost2010Prop57
140
1.0
102
RTVSPost2010PropOp57
 70
     1
102
RTVSPropertyOp0
 70
     1
102
RTVSPropertyOp1
 70
     1
102
RTVSPropertyOp2
 70
     1
102
RTVSPropertyOp3
 70
     1
102
RTVSPropertyOp4
 70
     1
102
RTVSPropertyOp5
 70
     1
102
RTVSPropertyOp6
 70
     1
102
RTVSPropertyOp7
 70
     1
102
RTVSPropertyOp8
 70
     1
102
RTVSPropertyOp9
 70
     1
102
RTVSPropertyOp10
 70
     1
102
RTVSPropertyOp11
 70
     1
102
RTVSPropertyOp12
 70
     1
102
RTVSPropertyOp13
 70
     1
102
RTVSPropertyOp14
 70
     1
102
RTVSPropertyOp15
 70
     1
102
RTVSPropertyOp16
 70
     1
102
RTVSPropertyOp17
 70
     1
102
RTVSPropertyOp18
 70
     1
102
RTVSPropertyOp19
 70
     1
102
RTVSPropertyOp20
 70
     1
102
RTVSPropertyOp21
 70
     1
102
RTVSPropertyOp22
 70
     1
102
RTVSPropertyOp23
 70
     1
102
RTVSPropertyOp24
 70
     1
102
RTVSPropertyOp25
 70
     1
102
RTVSPropertyOp26
 70
     1
102
RTVSPropertyOp27
 70
     1
102
RTVSPropertyOp28
 70
     1
102
RTVSPropertyOp29
 70
     1
102
RTVSPropertyOp30
 70
     1
102
RTVSPropertyOp31
 70
     1
102
RTVSPropertyOp32
 70
     1
102
RTVSPropertyOp33
 70
     1
102
RTVSPropertyOp34
 70
     1
102
RTVSPropertyOp35
 70
     1
102
RTVSPropertyOp36
 70
     1
102
RTVSPropertyOp37
 70
     1
102
RTVSPropertyOp38
 70
     1
102
RTVSPropertyOp39
 70
     1
102
RTVSPropertyOp40
 70
     1
102
RTVSPropertyOp41
 70
     1
102
RTVSPropertyOp42
 70
     1
102
RTVSPropertyOp43
 70
     1
102
RTVSPropertyOp44
 70
     1
102
RTVSPropertyOp45
 70
     1
102
RTVSPropertyOp46
 70
     1
102
RTVSPropertyOp47
 70
     1
102
RTVSPropertyOp48
 70
     1
102
RTVSPropertyOp49
 70
     1
102
RTVSPropertyOp50
 70
     1
102
RTVSPropertyOp51
 70
     0
102
RTVSPropertyOp52
 70
     0
102
RTVSPropertyOp53
 70
     1
102
RTVSPropertyOp54
 70
     1
102
RTVSPropertyOp55
 70
     1
102
RTVSPropertyOp56
 70
     1
102
RTVSPropertyOp57
 70
     1
102
RTVSPropertyOp58
 70
     1
102
RTVSPropertyOp59
 70
     1
102
RTVSPropertyOp60
 70
     1
102
RTVSPropertyOp61
 70
     1
102
RTVSPropertyOp62
 70
     1
  0
XRECORD
  5
841
102
{ACAD_REACTORS
330
840
102
}
330
840
100
AcDbXrecord
280
     1
102
RTVSPost2010Prop28
280
     0
102
RTVSPost2010PropOp28
 70
     1
102
RTVSPost2010Prop29
280
     1
102
RTVSPost2010PropOp29
 70
     1
102
RTVSPost2010Prop30
280
     1
102
RTVSPost2010PropOp30
 70
     1
102
RTVSPost2010Prop31
280
     0
102
RTVSPost2010PropOp31
 70
     1
102
RTVSPost2010Prop32
280
     0
102
RTVSPost2010PropOp32
 70
     1
102
RTVSPost2010Prop33
280
     0
102
RTVSPost2010PropOp33
 70
     1
102
RTVSPost2010Prop34
280
     0
102
RTVSPost2010PropOp34
 70
     1
102
RTVSPost2010Prop35
280
     0
102
RTVSPost2010PropOp35
 70
     1
102
RTVSPost2010Prop36
280
     0
102
RTVSPost2010PropOp36
 70
     1
102
RTVSPost2010Prop37
 90
       50
102
RTVSPost2010PropOp37
 70
     1
102
RTVSPost2010Prop38
140
0.0
102
RTVSPost2010PropOp38
 70
     1
102
RTVSPost2010Prop39
140
1.0
102
RTVSPost2010PropOp39
 70
     1
102
RTVSPost2010Prop40
 90
        0
102
RTVSPost2010PropOp40
 70
     1
102
RTVSPost2010Prop41ColorIndex
 90
       18
102
RTVSPost2010Prop41ColorRGB
 90
        0
102
RTVSPost2010PropOp41
 70
     1
102
RTVSPost2010Prop42
 90
       50
102
RTVSPost2010PropOp42
 70
     1
102
RTVSPost2010Prop43
 90
        3
102
RTVSPost2010PropOp43
 70
     1
102
RTVSPost2010Prop44ColorIndex
 90
        5
102
RTVSPost2010Prop44ColorRGB
 90
      255
102
RTVSPost2010PropOp44
 70
     1
102
RTVSPost2010Prop45
280
     0
102
RTVSPost2010PropOp45
 70
     1
102
RTVSPost2010Prop46
 90
       50
102
RTVSPost2010PropOp46
 70
     1
102
RTVSPost2010Prop47
 90
       50
102
RTVSPost2010PropOp47
 70
     1
102
RTVSPost2010Prop48
 90
       50
102
RTVSPost2010PropOp48
 70
     1
102
RTVSPost2010Prop49
280
     0
102
RTVSPost2010PropOp49
 70
     1
102
RTVSPost2010Prop50
 90
       50
102
RTVSPost2010PropOp50
 70
     1
102
RTVSPost2010Prop51ColorIndex
 90
      256
102
RTVSPost2010Prop51ColorRGB
 90
-16777216
102
RTVSPost2010PropOp51
 70
     0
102
RTVSPost2010Prop52
140
1.0
102
RTVSPost2010PropOp52
 70
     0
102
RTVSPost2010Prop53
 90
        2
102
RTVSPost2010PropOp53
 70
     1
102
RTVSPost2010Prop54
  1
strokes_ogs.tif
102
RTVSPost2010PropOp54
 70
     1
102
RTVSPost2010Prop55
280
     0
102
RTVSPost2010PropOp55
 70
     1
102
RTVSPost2010Prop56
140
1.0
102
RTVSPost2010PropOp56
 70
     1
102
RTVSPost2010Prop57
140
1.0
102
RTVSPost2010PropOp57
 70
     1
102
RTVSPropertyOp0
 70
     1
102
RTVSPropertyOp1
 70
     1
102
RTVSPropertyOp2
 70
     1
102
RTVSPropertyOp3
 70
     1
102
RTVSPropertyOp4
 70
     1
102
RTVSPropertyOp5
 70
     1
102
RTVSPropertyOp6
 70
     1
102
RTVSPropertyOp7
 70
     1
102
RTVSPropertyOp8
 70
     1
102
RTVSPropertyOp9
 70
     1
102
RTVSPropertyOp10
 70
     1
102
RTVSPropertyOp11
 70
     1
102
RTVSPropertyOp12
 70
     1
102
RTVSPropertyOp13
 70
     1
102
RTVSPropertyOp14
 70
     1
102
RTVSPropertyOp15
 70
     1
102
RTVSPropertyOp16
 70
     1
102
RTVSPropertyOp17
 70
     1
102
RTVSPropertyOp18
 70
     1
102
RTVSPropertyOp19
 70
     1
102
RTVSPropertyOp20
 70
     1
102
RTVSPropertyOp21
 70
     1
102
RTVSPropertyOp22
 70
     1
102
RTVSPropertyOp23
 70
     1
102
RTVSPropertyOp24
 70
     1
102
RTVSPropertyOp25
 70
     1
102
RTVSPropertyOp26
 70
     1
102
RTVSPropertyOp27
 70
     1
102
RTVSPropertyOp28
 70
     1
102
RTVSPropertyOp29
 70
     1
102
RTVSPropertyOp30
 70
     1
102
RTVSPropertyOp31
 70
     1
102
RTVSPropertyOp32
 70
     1
102
RTVSPropertyOp33
 70
     1
102
RTVSPropertyOp34
 70
     1
102
RTVSPropertyOp35
 70
     1
102
RTVSPropertyOp36
 70
     1
102
RTVSPropertyOp37
 70
     1
102
RTVSPropertyOp38
 70
     1
102
RTVSPropertyOp39
 70
     1
102
RTVSPropertyOp40
 70
     1
102
RTVSPropertyOp41
 70
     1
102
RTVSPropertyOp42
 70
     1
102
RTVSPropertyOp43
 70
     1
102
RTVSPropertyOp44
 70
     1
102
RTVSPropertyOp45
 70
     1
102
RTVSPropertyOp46
 70
     1
102
RTVSPropertyOp47
 70
     1
102
RTVSPropertyOp48
 70
     1
102
RTVSPropertyOp49
 70
     1
102
RTVSPropertyOp50
 70
     1
102
RTVSPropertyOp51
 70
     0
102
RTVSPropertyOp52
 70
     0
102
RTVSPropertyOp53
 70
     1
102
RTVSPropertyOp54
 70
     1
102
RTVSPropertyOp55
 70
     1
102
RTVSPropertyOp56
 70
     1
102
RTVSPropertyOp57
 70
     1
102
RTVSPropertyOp58
 70
     1
102
RTVSPropertyOp59
 70
     1
102
RTVSPropertyOp60
 70
     1
102
RTVSPropertyOp61
 70
     1
102
RTVSPropertyOp62
 70
     1
  0
XRECORD
  5
845
102
{ACAD_REACTORS
330
844
102
}
330
844
100
AcDbXrecord
280
     1
102
RTVSPost2010Prop28
280
     0
102
RTVSPost2010PropOp28
 70
     1
102
RTVSPost2010Prop29
280
     1
102
RTVSPost2010PropOp29
 70
     1
102
RTVSPost2010Prop30
280
     1
102
RTVSPost2010PropOp30
 70
     1
102
RTVSPost2010Prop31
280
     0
102
RTVSPost2010PropOp31
 70
     1
102
RTVSPost2010Prop32
280
     0
102
RTVSPost2010PropOp32
 70
     1
102
RTVSPost2010Prop33
280
     0
102
RTVSPost2010PropOp33
 70
     1
102
RTVSPost2010Prop34
280
     0
102
RTVSPost2010PropOp34
 70
     1
102
RTVSPost2010Prop35
280
     0
102
RTVSPost2010PropOp35
 70
     1
102
RTVSPost2010Prop36
280
     0
102
RTVSPost2010PropOp36
 70
     1
102
RTVSPost2010Prop37
 90
       50
102
RTVSPost2010PropOp37
 70
     1
102
RTVSPost2010Prop38
140
0.0
102
RTVSPost2010PropOp38
 70
     1
102
RTVSPost2010Prop39
140
1.0
102
RTVSPost2010PropOp39
 70
     1
102
RTVSPost2010Prop40
 90
        0
102
RTVSPost2010PropOp40
 70
     1
102
RTVSPost2010Prop41ColorIndex
 90
       18
102
RTVSPost2010Prop41ColorRGB
 90
        0
102
RTVSPost2010PropOp41
 70
     1
102
RTVSPost2010Prop42
 90
       50
102
RTVSPost2010PropOp42
 70
     1
102
RTVSPost2010Prop43
 90
        3
102
RTVSPost2010PropOp43
 70
     1
102
RTVSPost2010Prop44ColorIndex
 90
        5
102
RTVSPost2010Prop44ColorRGB
 90
      255
102
RTVSPost2010PropOp44
 70
     1
102
RTVSPost2010Prop45
280
     0
102
RTVSPost2010PropOp45
 70
     1
102
RTVSPost2010Prop46
 90
       50
102
RTVSPost2010PropOp46
 70
     1
102
RTVSPost2010Prop47
 90
       50
102
RTVSPost2010PropOp47
 70
     1
102
RTVSPost2010Prop48
 90
       50
102
RTVSPost2010PropOp48
 70
     1
102
RTVSPost2010Prop49
280
     0
102
RTVSPost2010PropOp49
 70
     1
102
RTVSPost2010Prop50
 90
       50
102
RTVSPost2010PropOp50
 70
     1
102
RTVSPost2010Prop51ColorIndex
 90
      256
102
RTVSPost2010Prop51ColorRGB
 90
-16777216
102
RTVSPost2010PropOp51
 70
     0
102
RTVSPost2010Prop52
140
1.0
102
RTVSPost2010PropOp52
 70
     0
102
RTVSPost2010Prop53
 90
        2
102
RTVSPost2010PropOp53
 70
     1
102
RTVSPost2010Prop54
  1
strokes_ogs.tif
102
RTVSPost2010PropOp54
 70
     1
102
RTVSPost2010Prop55
280
     0
102
RTVSPost2010PropOp55
 70
     1
102
RTVSPost2010Prop56
140
1.0
102
RTVSPost2010PropOp56
 70
     1
102
RTVSPost2010Prop57
140
1.0
102
RTVSPost2010PropOp57
 70
     1
102
RTVSPropertyOp0
 70
     1
102
RTVSPropertyOp1
 70
     1
102
RTVSPropertyOp2
 70
     1
102
RTVSPropertyOp3
 70
     1
102
RTVSPropertyOp4
 70
     1
102
RTVSPropertyOp5
 70
     1
102
RTVSPropertyOp6
 70
     1
102
RTVSPropertyOp7
 70
     1
102
RTVSPropertyOp8
 70
     1
102
RTVSPropertyOp9
 70
     1
102
RTVSPropertyOp10
 70
     1
102
RTVSPropertyOp11
 70
     1
102
RTVSPropertyOp12
 70
     1
102
RTVSPropertyOp13
 70
     1
102
RTVSPropertyOp14
 70
     1
102
RTVSPropertyOp15
 70
     1
102
RTVSPropertyOp16
 70
     1
102
RTVSPropertyOp17
 70
     1
102
RTVSPropertyOp18
 70
     1
102
RTVSPropertyOp19
 70
     1
102
RTVSPropertyOp20
 70
     1
102
RTVSPropertyOp21
 70
     1
102
RTVSPropertyOp22
 70
     1
102
RTVSPropertyOp23
 70
     1
102
RTVSPropertyOp24
 70
     1
102
RTVSPropertyOp25
 70
     1
102
RTVSPropertyOp26
 70
     1
102
RTVSPropertyOp27
 70
     1
102
RTVSPropertyOp28
 70
     1
102
RTVSPropertyOp29
 70
     1
102
RTVSPropertyOp30
 70
     1
102
RTVSPropertyOp31
 70
     1
102
RTVSPropertyOp32
 70
     1
102
RTVSPropertyOp33
 70
     1
102
RTVSPropertyOp34
 70
     1
102
RTVSPropertyOp35
 70
     1
102
RTVSPropertyOp36
 70
     1
102
RTVSPropertyOp37
 70
     1
102
RTVSPropertyOp38
 70
     1
102
RTVSPropertyOp39
 70
     1
102
RTVSPropertyOp40
 70
     1
102
RTVSPropertyOp41
 70
     1
102
RTVSPropertyOp42
 70
     1
102
RTVSPropertyOp43
 70
     1
102
RTVSPropertyOp44
 70
     1
102
RTVSPropertyOp45
 70
     1
102
RTVSPropertyOp46
 70
     1
102
RTVSPropertyOp47
 70
     1
102
RTVSPropertyOp48
 70
     1
102
RTVSPropertyOp49
 70
     1
102
RTVSPropertyOp50
 70
     1
102
RTVSPropertyOp51
 70
     0
102
RTVSPropertyOp52
 70
     0
102
RTVSPropertyOp53
 70
     1
102
RTVSPropertyOp54
 70
     1
102
RTVSPropertyOp55
 70
     1
102
RTVSPropertyOp56
 70
     1
102
RTVSPropertyOp57
 70
     1
102
RTVSPropertyOp58
 70
     1
102
RTVSPropertyOp59
 70
     1
102
RTVSPropertyOp60
 70
     1
102
RTVSPropertyOp61
 70
     1
102
RTVSPropertyOp62
 70
     1
  0
XRECORD
  5
855
102
{ACAD_REACTORS
330
854
102
}
330
854
100
AcDbXrecord
280
     1
102
RTVSPost2010Prop28
280
     0
102
RTVSPost2010PropOp28
 70
     1
102
RTVSPost2010Prop29
280
     1
102
RTVSPost2010PropOp29
 70
     1
102
RTVSPost2010Prop30
280
     1
102
RTVSPost2010PropOp30
 70
     1
102
RTVSPost2010Prop31
280
     0
102
RTVSPost2010PropOp31
 70
     1
102
RTVSPost2010Prop32
280
     0
102
RTVSPost2010PropOp32
 70
     1
102
RTVSPost2010Prop33
280
     0
102
RTVSPost2010PropOp33
 70
     1
102
RTVSPost2010Prop34
280
     0
102
RTVSPost2010PropOp34
 70
     1
102
RTVSPost2010Prop35
280
     0
102
RTVSPost2010PropOp35
 70
     1
102
RTVSPost2010Prop36
280
     0
102
RTVSPost2010PropOp36
 70
     1
102
RTVSPost2010Prop37
 90
       50
102
RTVSPost2010PropOp37
 70
     1
102
RTVSPost2010Prop38
140
0.0
102
RTVSPost2010PropOp38
 70
     1
102
RTVSPost2010Prop39
140
1.0
102
RTVSPost2010PropOp39
 70
     1
102
RTVSPost2010Prop40
 90
        0
102
RTVSPost2010PropOp40
 70
     1
102
RTVSPost2010Prop41ColorIndex
 90
       18
102
RTVSPost2010Prop41ColorRGB
 90
        0
102
RTVSPost2010PropOp41
 70
     1
102
RTVSPost2010Prop42
 90
       50
102
RTVSPost2010PropOp42
 70
     1
102
RTVSPost2010Prop43
 90
        3
102
RTVSPost2010PropOp43
 70
     1
102
RTVSPost2010Prop44ColorIndex
 90
        5
102
RTVSPost2010Prop44ColorRGB
 90
      255
102
RTVSPost2010PropOp44
 70
     1
102
RTVSPost2010Prop45
280
     0
102
RTVSPost2010PropOp45
 70
     1
102
RTVSPost2010Prop46
 90
       50
102
RTVSPost2010PropOp46
 70
     1
102
RTVSPost2010Prop47
 90
       50
102
RTVSPost2010PropOp47
 70
     1
102
RTVSPost2010Prop48
 90
       50
102
RTVSPost2010PropOp48
 70
     1
102
RTVSPost2010Prop49
280
     0
102
RTVSPost2010PropOp49
 70
     1
102
RTVSPost2010Prop50
 90
       50
102
RTVSPost2010PropOp50
 70
     1
102
RTVSPost2010Prop51ColorIndex
 90
      256
102
RTVSPost2010Prop51ColorRGB
 90
-16777216
102
RTVSPost2010PropOp51
 70
     0
102
RTVSPost2010Prop52
140
1.0
102
RTVSPost2010PropOp52
 70
     0
102
RTVSPost2010Prop53
 90
        2
102
RTVSPost2010PropOp53
 70
     1
102
RTVSPost2010Prop54
  1
strokes_ogs.tif
102
RTVSPost2010PropOp54
 70
     1
102
RTVSPost2010Prop55
280
     0
102
RTVSPost2010PropOp55
 70
     1
102
RTVSPost2010Prop56
140
1.0
102
RTVSPost2010PropOp56
 70
     1
102
RTVSPost2010Prop57
140
1.0
102
RTVSPost2010PropOp57
 70
     1
102
RTVSPropertyOp0
 70
     0
102
RTVSPropertyOp1
 70
     0
102
RTVSPropertyOp2
 70
     0
102
RTVSPropertyOp3
 70
     0
102
RTVSPropertyOp4
 70
     0
102
RTVSPropertyOp5
 70
     0
102
RTVSPropertyOp6
 70
     0
102
RTVSPropertyOp7
 70
     0
102
RTVSPropertyOp8
 70
     0
102
RTVSPropertyOp9
 70
     0
102
RTVSPropertyOp10
 70
     0
102
RTVSPropertyOp11
 70
     0
102
RTVSPropertyOp12
 70
     0
102
RTVSPropertyOp13
 70
     0
102
RTVSPropertyOp14
 70
     2
102
RTVSPropertyOp15
 70
     0
102
RTVSPropertyOp16
 70
     0
102
RTVSPropertyOp17
 70
     0
102
RTVSPropertyOp18
 70
     0
102
RTVSPropertyOp19
 70
     0
102
RTVSPropertyOp20
 70
     0
102
RTVSPropertyOp21
 70
     0
102
RTVSPropertyOp22
 70
     0
102
RTVSPropertyOp23
 70
     0
102
RTVSPropertyOp24
 70
     0
102
RTVSPropertyOp25
 70
     0
102
RTVSPropertyOp26
 70
     0
102
RTVSPropertyOp27
 70
     0
102
RTVSPropertyOp28
 70
     1
102
RTVSPropertyOp29
 70
     1
102
RTVSPropertyOp30
 70
     1
102
RTVSPropertyOp31
 70
     1
102
RTVSPropertyOp32
 70
     1
102
RTVSPropertyOp33
 70
     1
102
RTVSPropertyOp34
 70
     1
102
RTVSPropertyOp35
 70
     1
102
RTVSPropertyOp36
 70
     1
102
RTVSPropertyOp37
 70
     1
102
RTVSPropertyOp38
 70
     1
102
RTVSPropertyOp39
 70
     1
102
RTVSPropertyOp40
 70
     1
102
RTVSPropertyOp41
 70
     1
102
RTVSPropertyOp42
 70
     1
102
RTVSPropertyOp43
 70
     1
102
RTVSPropertyOp44
 70
     1
102
RTVSPropertyOp45
 70
     1
102
RTVSPropertyOp46
 70
     1
102
RTVSPropertyOp47
 70
     1
102
RTVSPropertyOp48
 70
     1
102
RTVSPropertyOp49
 70
     1
102
RTVSPropertyOp50
 70
     1
102
RTVSPropertyOp51
 70
     0
102
RTVSPropertyOp52
 70
     0
102
RTVSPropertyOp53
 70
     1
102
RTVSPropertyOp54
 70
     1
102
RTVSPropertyOp55
 70
     1
102
RTVSPropertyOp56
 70
     1
102
RTVSPropertyOp57
 70
     1
102
RTVSPropertyOp58
 70
     1
102
RTVSPropertyOp59
 70
     1
102
RTVSPropertyOp60
 70
     1
102
RTVSPropertyOp61
 70
     1
102
RTVSPropertyOp62
 70
     1
  0
XRECORD
  5
84D
102
{ACAD_REACTORS
330
84C
102
}
330
84C
100
AcDbXrecord
280
     1
102
RTVSPost2010Prop28
280
     0
102
RTVSPost2010PropOp28
 70
     1
102
RTVSPost2010Prop29
280
     1
102
RTVSPost2010PropOp29
 70
     1
102
RTVSPost2010Prop30
280
     1
102
RTVSPost2010PropOp30
 70
     1
102
RTVSPost2010Prop31
280
     0
102
RTVSPost2010PropOp31
 70
     1
102
RTVSPost2010Prop32
280
     0
102
RTVSPost2010PropOp32
 70
     1
102
RTVSPost2010Prop33
280
     0
102
RTVSPost2010PropOp33
 70
     1
102
RTVSPost2010Prop34
280
     0
102
RTVSPost2010PropOp34
 70
     1
102
RTVSPost2010Prop35
280
     0
102
RTVSPost2010PropOp35
 70
     1
102
RTVSPost2010Prop36
280
     0
102
RTVSPost2010PropOp36
 70
     1
102
RTVSPost2010Prop37
 90
       50
102
RTVSPost2010PropOp37
 70
     1
102
RTVSPost2010Prop38
140
0.0
102
RTVSPost2010PropOp38
 70
     1
102
RTVSPost2010Prop39
140
1.0
102
RTVSPost2010PropOp39
 70
     1
102
RTVSPost2010Prop40
 90
        0
102
RTVSPost2010PropOp40
 70
     1
102
RTVSPost2010Prop41ColorIndex
 90
       18
102
RTVSPost2010Prop41ColorRGB
 90
        0
102
RTVSPost2010PropOp41
 70
     1
102
RTVSPost2010Prop42
 90
       50
102
RTVSPost2010PropOp42
 70
     1
102
RTVSPost2010Prop43
 90
        3
102
RTVSPost2010PropOp43
 70
     1
102
RTVSPost2010Prop44ColorIndex
 90
        5
102
RTVSPost2010Prop44ColorRGB
 90
      255
102
RTVSPost2010PropOp44
 70
     1
102
RTVSPost2010Prop45
280
     0
102
RTVSPost2010PropOp45
 70
     1
102
RTVSPost2010Prop46
 90
       50
102
RTVSPost2010PropOp46
 70
     1
102
RTVSPost2010Prop47
 90
       50
102
RTVSPost2010PropOp47
 70
     1
102
RTVSPost2010Prop48
 90
       50
102
RTVSPost2010PropOp48
 70
     1
102
RTVSPost2010Prop49
280
     0
102
RTVSPost2010PropOp49
 70
     1
102
RTVSPost2010Prop50
 90
       50
102
RTVSPost2010PropOp50
 70
     1
102
RTVSPost2010Prop51ColorIndex
 90
      256
102
RTVSPost2010Prop51ColorRGB
 90
-16777216
102
RTVSPost2010PropOp51
 70
     0
102
RTVSPost2010Prop52
140
1.0
102
RTVSPost2010PropOp52
 70
     0
102
RTVSPost2010Prop53
 90
        2
102
RTVSPost2010PropOp53
 70
     1
102
RTVSPost2010Prop54
  1
strokes_ogs.tif
102
RTVSPost2010PropOp54
 70
     1
102
RTVSPost2010Prop55
280
     0
102
RTVSPost2010PropOp55
 70
     1
102
RTVSPost2010Prop56
140
1.0
102
RTVSPost2010PropOp56
 70
     1
102
RTVSPost2010Prop57
140
1.0
102
RTVSPost2010PropOp57
 70
     1
102
RTVSPropertyOp0
 70
     1
102
RTVSPropertyOp1
 70
     1
102
RTVSPropertyOp2
 70
     1
102
RTVSPropertyOp3
 70
     1
102
RTVSPropertyOp4
 70
     1
102
RTVSPropertyOp5
 70
     1
102
RTVSPropertyOp6
 70
     1
102
RTVSPropertyOp7
 70
     1
102
RTVSPropertyOp8
 70
     1
102
RTVSPropertyOp9
 70
     1
102
RTVSPropertyOp10
 70
     1
102
RTVSPropertyOp11
 70
     1
102
RTVSPropertyOp12
 70
     1
102
RTVSPropertyOp13
 70
     1
102
RTVSPropertyOp14
 70
     1
102
RTVSPropertyOp15
 70
     1
102
RTVSPropertyOp16
 70
     1
102
RTVSPropertyOp17
 70
     1
102
RTVSPropertyOp18
 70
     1
102
RTVSPropertyOp19
 70
     1
102
RTVSPropertyOp20
 70
     1
102
RTVSPropertyOp21
 70
     1
102
RTVSPropertyOp22
 70
     1
102
RTVSPropertyOp23
 70
     1
102
RTVSPropertyOp24
 70
     1
102
RTVSPropertyOp25
 70
     1
102
RTVSPropertyOp26
 70
     1
102
RTVSPropertyOp27
 70
     1
102
RTVSPropertyOp28
 70
     1
102
RTVSPropertyOp29
 70
     1
102
RTVSPropertyOp30
 70
     1
102
RTVSPropertyOp31
 70
     1
102
RTVSPropertyOp32
 70
     1
102
RTVSPropertyOp33
 70
     1
102
RTVSPropertyOp34
 70
     1
102
RTVSPropertyOp35
 70
     1
102
RTVSPropertyOp36
 70
     1
102
RTVSPropertyOp37
 70
     1
102
RTVSPropertyOp38
 70
     1
102
RTVSPropertyOp39
 70
     1
102
RTVSPropertyOp40
 70
     1
102
RTVSPropertyOp41
 70
     1
102
RTVSPropertyOp42
 70
     1
102
RTVSPropertyOp43
 70
     1
102
RTVSPropertyOp44
 70
     1
102
RTVSPropertyOp45
 70
     1
102
RTVSPropertyOp46
 70
     1
102
RTVSPropertyOp47
 70
     1
102
RTVSPropertyOp48
 70
     1
102
RTVSPropertyOp49
 70
     1
102
RTVSPropertyOp50
 70
     1
102
RTVSPropertyOp51
 70
     0
102
RTVSPropertyOp52
 70
     0
102
RTVSPropertyOp53
 70
     1
102
RTVSPropertyOp54
 70
     1
102
RTVSPropertyOp55
 70
     1
102
RTVSPropertyOp56
 70
     1
102
RTVSPropertyOp57
 70
     1
102
RTVSPropertyOp58
 70
     1
102
RTVSPropertyOp59
 70
     1
102
RTVSPropertyOp60
 70
     1
102
RTVSPropertyOp61
 70
     1
102
RTVSPropertyOp62
 70
     1
  0
XRECORD
  5
831
102
{ACAD_REACTORS
330
830
102
}
330
830
100
AcDbXrecord
280
     1
102
RTVSPost2010Prop28
280
     0
102
RTVSPost2010PropOp28
 70
     1
102
RTVSPost2010Prop29
280
     1
102
RTVSPost2010PropOp29
 70
     1
102
RTVSPost2010Prop30
280
     1
102
RTVSPost2010PropOp30
 70
     1
102
RTVSPost2010Prop31
280
     0
102
RTVSPost2010PropOp31
 70
     1
102
RTVSPost2010Prop32
280
     0
102
RTVSPost2010PropOp32
 70
     1
102
RTVSPost2010Prop33
280
     0
102
RTVSPost2010PropOp33
 70
     1
102
RTVSPost2010Prop34
280
     0
102
RTVSPost2010PropOp34
 70
     1
102
RTVSPost2010Prop35
280
     0
102
RTVSPost2010PropOp35
 70
     1
102
RTVSPost2010Prop36
280
     0
102
RTVSPost2010PropOp36
 70
     1
102
RTVSPost2010Prop37
 90
       50
102
RTVSPost2010PropOp37
 70
     1
102
RTVSPost2010Prop38
140
0.0
102
RTVSPost2010PropOp38
 70
     1
102
RTVSPost2010Prop39
140
1.0
102
RTVSPost2010PropOp39
 70
     1
102
RTVSPost2010Prop40
 90
        0
102
RTVSPost2010PropOp40
 70
     1
102
RTVSPost2010Prop41ColorIndex
 90
       18
102
RTVSPost2010Prop41ColorRGB
 90
        0
102
RTVSPost2010PropOp41
 70
     1
102
RTVSPost2010Prop42
 90
       50
102
RTVSPost2010PropOp42
 70
     1
102
RTVSPost2010Prop43
 90
        3
102
RTVSPost2010PropOp43
 70
     1
102
RTVSPost2010Prop44ColorIndex
 90
        5
102
RTVSPost2010Prop44ColorRGB
 90
      255
102
RTVSPost2010PropOp44
 70
     1
102
RTVSPost2010Prop45
280
     0
102
RTVSPost2010PropOp45
 70
     1
102
RTVSPost2010Prop46
 90
       50
102
RTVSPost2010PropOp46
 70
     1
102
RTVSPost2010Prop47
 90
       50
102
RTVSPost2010PropOp47
 70
     1
102
RTVSPost2010Prop48
 90
       50
102
RTVSPost2010PropOp48
 70
     1
102
RTVSPost2010Prop49
280
     0
102
RTVSPost2010PropOp49
 70
     1
102
RTVSPost2010Prop50
 90
       50
102
RTVSPost2010PropOp50
 70
     1
102
RTVSPost2010Prop51ColorIndex
 90
      256
102
RTVSPost2010Prop51ColorRGB
 90
-16777216
102
RTVSPost2010PropOp51
 70
     0
102
RTVSPost2010Prop52
140
1.0
102
RTVSPost2010PropOp52
 70
     0
102
RTVSPost2010Prop53
 90
        2
102
RTVSPost2010PropOp53
 70
     1
102
RTVSPost2010Prop54
  1
strokes_ogs.tif
102
RTVSPost2010PropOp54
 70
     1
102
RTVSPost2010Prop55
280
     0
102
RTVSPost2010PropOp55
 70
     1
102
RTVSPost2010Prop56
140
1.0
102
RTVSPost2010PropOp56
 70
     1
102
RTVSPost2010Prop57
140
1.0
102
RTVSPost2010PropOp57
 70
     1
102
RTVSPropertyOp0
 70
     1
102
RTVSPropertyOp1
 70
     1
102
RTVSPropertyOp2
 70
     1
102
RTVSPropertyOp3
 70
     1
102
RTVSPropertyOp4
 70
     1
102
RTVSPropertyOp5
 70
     1
102
RTVSPropertyOp6
 70
     1
102
RTVSPropertyOp7
 70
     1
102
RTVSPropertyOp8
 70
     1
102
RTVSPropertyOp9
 70
     1
102
RTVSPropertyOp10
 70
     1
102
RTVSPropertyOp11
 70
     1
102
RTVSPropertyOp12
 70
     1
102
RTVSPropertyOp13
 70
     1
102
RTVSPropertyOp14
 70
     1
102
RTVSPropertyOp15
 70
     1
102
RTVSPropertyOp16
 70
     1
102
RTVSPropertyOp17
 70
     1
102
RTVSPropertyOp18
 70
     1
102
RTVSPropertyOp19
 70
     1
102
RTVSPropertyOp20
 70
     1
102
RTVSPropertyOp21
 70
     1
102
RTVSPropertyOp22
 70
     1
102
RTVSPropertyOp23
 70
     1
102
RTVSPropertyOp24
 70
     1
102
RTVSPropertyOp25
 70
     1
102
RTVSPropertyOp26
 70
     1
102
RTVSPropertyOp27
 70
     1
102
RTVSPropertyOp28
 70
     1
102
RTVSPropertyOp29
 70
     1
102
RTVSPropertyOp30
 70
     1
102
RTVSPropertyOp31
 70
     1
102
RTVSPropertyOp32
 70
     1
102
RTVSPropertyOp33
 70
     1
102
RTVSPropertyOp34
 70
     1
102
RTVSPropertyOp35
 70
     1
102
RTVSPropertyOp36
 70
     1
102
RTVSPropertyOp37
 70
     1
102
RTVSPropertyOp38
 70
     1
102
RTVSPropertyOp39
 70
     1
102
RTVSPropertyOp40
 70
     1
102
RTVSPropertyOp41
 70
     1
102
RTVSPropertyOp42
 70
     1
102
RTVSPropertyOp43
 70
     1
102
RTVSPropertyOp44
 70
     1
102
RTVSPropertyOp45
 70
     1
102
RTVSPropertyOp46
 70
     1
102
RTVSPropertyOp47
 70
     1
102
RTVSPropertyOp48
 70
     1
102
RTVSPropertyOp49
 70
     1
102
RTVSPropertyOp50
 70
     1
102
RTVSPropertyOp51
 70
     0
102
RTVSPropertyOp52
 70
     0
102
RTVSPropertyOp53
 70
     1
102
RTVSPropertyOp54
 70
     1
102
RTVSPropertyOp55
 70
     1
102
RTVSPropertyOp56
 70
     1
102
RTVSPropertyOp57
 70
     1
102
RTVSPropertyOp58
 70
     1
102
RTVSPropertyOp59
 70
     1
102
RTVSPropertyOp60
 70
     1
102
RTVSPropertyOp61
 70
     1
102
RTVSPropertyOp62
 70
     1
  0
XRECORD
  5
833
102
{ACAD_REACTORS
330
832
102
}
330
832
100
AcDbXrecord
280
     1
102
RTVSPost2010Prop28
280
     0
102
RTVSPost2010PropOp28
 70
     1
102
RTVSPost2010Prop29
280
     1
102
RTVSPost2010PropOp29
 70
     1
102
RTVSPost2010Prop30
280
     1
102
RTVSPost2010PropOp30
 70
     1
102
RTVSPost2010Prop31
280
     0
102
RTVSPost2010PropOp31
 70
     1
102
RTVSPost2010Prop32
280
     0
102
RTVSPost2010PropOp32
 70
     1
102
RTVSPost2010Prop33
280
     0
102
RTVSPost2010PropOp33
 70
     1
102
RTVSPost2010Prop34
280
     0
102
RTVSPost2010PropOp34
 70
     1
102
RTVSPost2010Prop35
280
     0
102
RTVSPost2010PropOp35
 70
     1
102
RTVSPost2010Prop36
280
     0
102
RTVSPost2010PropOp36
 70
     1
102
RTVSPost2010Prop37
 90
       50
102
RTVSPost2010PropOp37
 70
     1
102
RTVSPost2010Prop38
140
0.0
102
RTVSPost2010PropOp38
 70
     1
102
RTVSPost2010Prop39
140
1.0
102
RTVSPost2010PropOp39
 70
     1
102
RTVSPost2010Prop40
 90
        0
102
RTVSPost2010PropOp40
 70
     1
102
RTVSPost2010Prop41ColorIndex
 90
       18
102
RTVSPost2010Prop41ColorRGB
 90
        0
102
RTVSPost2010PropOp41
 70
     1
102
RTVSPost2010Prop42
 90
       50
102
RTVSPost2010PropOp42
 70
     1
102
RTVSPost2010Prop43
 90
        3
102
RTVSPost2010PropOp43
 70
     1
102
RTVSPost2010Prop44ColorIndex
 90
        5
102
RTVSPost2010Prop44ColorRGB
 90
      255
102
RTVSPost2010PropOp44
 70
     1
102
RTVSPost2010Prop45
280
     0
102
RTVSPost2010PropOp45
 70
     1
102
RTVSPost2010Prop46
 90
       50
102
RTVSPost2010PropOp46
 70
     1
102
RTVSPost2010Prop47
 90
       50
102
RTVSPost2010PropOp47
 70
     1
102
RTVSPost2010Prop48
 90
       50
102
RTVSPost2010PropOp48
 70
     1
102
RTVSPost2010Prop49
280
     0
102
RTVSPost2010PropOp49
 70
     1
102
RTVSPost2010Prop50
 90
       50
102
RTVSPost2010PropOp50
 70
     1
102
RTVSPost2010Prop51ColorIndex
 90
      256
102
RTVSPost2010Prop51ColorRGB
 90
-16777216
102
RTVSPost2010PropOp51
 70
     0
102
RTVSPost2010Prop52
140
1.0
102
RTVSPost2010PropOp52
 70
     0
102
RTVSPost2010Prop53
 90
        2
102
RTVSPost2010PropOp53
 70
     1
102
RTVSPost2010Prop54
  1
strokes_ogs.tif
102
RTVSPost2010PropOp54
 70
     1
102
RTVSPost2010Prop55
280
     0
102
RTVSPost2010PropOp55
 70
     1
102
RTVSPost2010Prop56
140
1.0
102
RTVSPost2010PropOp56
 70
     1
102
RTVSPost2010Prop57
140
1.0
102
RTVSPost2010PropOp57
 70
     1
102
RTVSPropertyOp0
 70
     1
102
RTVSPropertyOp1
 70
     1
102
RTVSPropertyOp2
 70
     1
102
RTVSPropertyOp3
 70
     1
102
RTVSPropertyOp4
 70
     1
102
RTVSPropertyOp5
 70
     1
102
RTVSPropertyOp6
 70
     1
102
RTVSPropertyOp7
 70
     1
102
RTVSPropertyOp8
 70
     1
102
RTVSPropertyOp9
 70
     1
102
RTVSPropertyOp10
 70
     1
102
RTVSPropertyOp11
 70
     1
102
RTVSPropertyOp12
 70
     1
102
RTVSPropertyOp13
 70
     1
102
RTVSPropertyOp14
 70
     1
102
RTVSPropertyOp15
 70
     1
102
RTVSPropertyOp16
 70
     1
102
RTVSPropertyOp17
 70
     1
102
RTVSPropertyOp18
 70
     1
102
RTVSPropertyOp19
 70
     1
102
RTVSPropertyOp20
 70
     1
102
RTVSPropertyOp21
 70
     1
102
RTVSPropertyOp22
 70
     1
102
RTVSPropertyOp23
 70
     1
102
RTVSPropertyOp24
 70
     1
102
RTVSPropertyOp25
 70
     1
102
RTVSPropertyOp26
 70
     1
102
RTVSPropertyOp27
 70
     1
102
RTVSPropertyOp28
 70
     1
102
RTVSPropertyOp29
 70
     1
102
RTVSPropertyOp30
 70
     1
102
RTVSPropertyOp31
 70
     1
102
RTVSPropertyOp32
 70
     1
102
RTVSPropertyOp33
 70
     1
102
RTVSPropertyOp34
 70
     1
102
RTVSPropertyOp35
 70
     1
102
RTVSPropertyOp36
 70
     1
102
RTVSPropertyOp37
 70
     1
102
RTVSPropertyOp38
 70
     1
102
RTVSPropertyOp39
 70
     1
102
RTVSPropertyOp40
 70
     1
102
RTVSPropertyOp41
 70
     1
102
RTVSPropertyOp42
 70
     1
102
RTVSPropertyOp43
 70
     1
102
RTVSPropertyOp44
 70
     1
102
RTVSPropertyOp45
 70
     1
102
RTVSPropertyOp46
 70
     1
102
RTVSPropertyOp47
 70
     1
102
RTVSPropertyOp48
 70
     1
102
RTVSPropertyOp49
 70
     1
102
RTVSPropertyOp50
 70
     1
102
RTVSPropertyOp51
 70
     0
102
RTVSPropertyOp52
 70
     0
102
RTVSPropertyOp53
 70
     1
102
RTVSPropertyOp54
 70
     1
102
RTVSPropertyOp55
 70
     1
102
RTVSPropertyOp56
 70
     1
102
RTVSPropertyOp57
 70
     1
102
RTVSPropertyOp58
 70
     1
102
RTVSPropertyOp59
 70
     1
102
RTVSPropertyOp60
 70
     1
102
RTVSPropertyOp61
 70
     1
102
RTVSPropertyOp62
 70
     1
  0
XRECORD
  5
835
102
{ACAD_REACTORS
330
834
102
}
330
834
100
AcDbXrecord
280
     1
102
RTVSPost2010Prop28
280
     0
102
RTVSPost2010PropOp28
 70
     1
102
RTVSPost2010Prop29
280
     1
102
RTVSPost2010PropOp29
 70
     1
102
RTVSPost2010Prop30
280
     1
102
RTVSPost2010PropOp30
 70
     1
102
RTVSPost2010Prop31
280
     0
102
RTVSPost2010PropOp31
 70
     1
102
RTVSPost2010Prop32
280
     0
102
RTVSPost2010PropOp32
 70
     1
102
RTVSPost2010Prop33
280
     0
102
RTVSPost2010PropOp33
 70
     1
102
RTVSPost2010Prop34
280
     0
102
RTVSPost2010PropOp34
 70
     1
102
RTVSPost2010Prop35
280
     0
102
RTVSPost2010PropOp35
 70
     1
102
RTVSPost2010Prop36
280
     0
102
RTVSPost2010PropOp36
 70
     1
102
RTVSPost2010Prop37
 90
       50
102
RTVSPost2010PropOp37
 70
     1
102
RTVSPost2010Prop38
140
0.0
102
RTVSPost2010PropOp38
 70
     1
102
RTVSPost2010Prop39
140
1.0
102
RTVSPost2010PropOp39
 70
     1
102
RTVSPost2010Prop40
 90
        0
102
RTVSPost2010PropOp40
 70
     1
102
RTVSPost2010Prop41ColorIndex
 90
       18
102
RTVSPost2010Prop41ColorRGB
 90
        0
102
RTVSPost2010PropOp41
 70
     1
102
RTVSPost2010Prop42
 90
       50
102
RTVSPost2010PropOp42
 70
     1
102
RTVSPost2010Prop43
 90
        3
102
RTVSPost2010PropOp43
 70
     1
102
RTVSPost2010Prop44ColorIndex
 90
        5
102
RTVSPost2010Prop44ColorRGB
 90
      255
102
RTVSPost2010PropOp44
 70
     1
102
RTVSPost2010Prop45
280
     0
102
RTVSPost2010PropOp45
 70
     1
102
RTVSPost2010Prop46
 90
       50
102
RTVSPost2010PropOp46
 70
     1
102
RTVSPost2010Prop47
 90
       50
102
RTVSPost2010PropOp47
 70
     1
102
RTVSPost2010Prop48
 90
       50
102
RTVSPost2010PropOp48
 70
     1
102
RTVSPost2010Prop49
280
     0
102
RTVSPost2010PropOp49
 70
     1
102
RTVSPost2010Prop50
 90
       50
102
RTVSPost2010PropOp50
 70
     1
102
RTVSPost2010Prop51ColorIndex
 90
      256
102
RTVSPost2010Prop51ColorRGB
 90
-16777216
102
RTVSPost2010PropOp51
 70
     0
102
RTVSPost2010Prop52
140
1.0
102
RTVSPost2010PropOp52
 70
     0
102
RTVSPost2010Prop53
 90
        2
102
RTVSPost2010PropOp53
 70
     1
102
RTVSPost2010Prop54
  1
strokes_ogs.tif
102
RTVSPost2010PropOp54
 70
     1
102
RTVSPost2010Prop55
280
     0
102
RTVSPost2010PropOp55
 70
     1
102
RTVSPost2010Prop56
140
1.0
102
RTVSPost2010PropOp56
 70
     1
102
RTVSPost2010Prop57
140
1.0
102
RTVSPost2010PropOp57
 70
     1
102
RTVSPropertyOp0
 70
     1
102
RTVSPropertyOp1
 70
     1
102
RTVSPropertyOp2
 70
     1
102
RTVSPropertyOp3
 70
     1
102
RTVSPropertyOp4
 70
     1
102
RTVSPropertyOp5
 70
     1
102
RTVSPropertyOp6
 70
     1
102
RTVSPropertyOp7
 70
     1
102
RTVSPropertyOp8
 70
     1
102
RTVSPropertyOp9
 70
     1
102
RTVSPropertyOp10
 70
     1
102
RTVSPropertyOp11
 70
     1
102
RTVSPropertyOp12
 70
     1
102
RTVSPropertyOp13
 70
     1
102
RTVSPropertyOp14
 70
     1
102
RTVSPropertyOp15
 70
     1
102
RTVSPropertyOp16
 70
     1
102
RTVSPropertyOp17
 70
     1
102
RTVSPropertyOp18
 70
     1
102
RTVSPropertyOp19
 70
     1
102
RTVSPropertyOp20
 70
     1
102
RTVSPropertyOp21
 70
     1
102
RTVSPropertyOp22
 70
     1
102
RTVSPropertyOp23
 70
     1
102
RTVSPropertyOp24
 70
     1
102
RTVSPropertyOp25
 70
     1
102
RTVSPropertyOp26
 70
     1
102
RTVSPropertyOp27
 70
     1
102
RTVSPropertyOp28
 70
     1
102
RTVSPropertyOp29
 70
     1
102
RTVSPropertyOp30
 70
     1
102
RTVSPropertyOp31
 70
     1
102
RTVSPropertyOp32
 70
     1
102
RTVSPropertyOp33
 70
     1
102
RTVSPropertyOp34
 70
     1
102
RTVSPropertyOp35
 70
     1
102
RTVSPropertyOp36
 70
     1
102
RTVSPropertyOp37
 70
     1
102
RTVSPropertyOp38
 70
     1
102
RTVSPropertyOp39
 70
     1
102
RTVSPropertyOp40
 70
     1
102
RTVSPropertyOp41
 70
     1
102
RTVSPropertyOp42
 70
     1
102
RTVSPropertyOp43
 70
     1
102
RTVSPropertyOp44
 70
     1
102
RTVSPropertyOp45
 70
     1
102
RTVSPropertyOp46
 70
     1
102
RTVSPropertyOp47
 70
     1
102
RTVSPropertyOp48
 70
     1
102
RTVSPropertyOp49
 70
     1
102
RTVSPropertyOp50
 70
     1
102
RTVSPropertyOp51
 70
     0
102
RTVSPropertyOp52
 70
     0
102
RTVSPropertyOp53
 70
     1
102
RTVSPropertyOp54
 70
     1
102
RTVSPropertyOp55
 70
     1
102
RTVSPropertyOp56
 70
     1
102
RTVSPropertyOp57
 70
     1
102
RTVSPropertyOp58
 70
     1
102
RTVSPropertyOp59
 70
     1
102
RTVSPropertyOp60
 70
     1
102
RTVSPropertyOp61
 70
     1
102
RTVSPropertyOp62
 70
     1
  0
XRECORD
  5
837
102
{ACAD_REACTORS
330
836
102
}
330
836
100
AcDbXrecord
280
     1
102
RTVSPost2010Prop28
280
     0
102
RTVSPost2010PropOp28
 70
     1
102
RTVSPost2010Prop29
280
     1
102
RTVSPost2010PropOp29
 70
     1
102
RTVSPost2010Prop30
280
     1
102
RTVSPost2010PropOp30
 70
     1
102
RTVSPost2010Prop31
280
     0
102
RTVSPost2010PropOp31
 70
     1
102
RTVSPost2010Prop32
280
     0
102
RTVSPost2010PropOp32
 70
     1
102
RTVSPost2010Prop33
280
     0
102
RTVSPost2010PropOp33
 70
     1
102
RTVSPost2010Prop34
280
     0
102
RTVSPost2010PropOp34
 70
     1
102
RTVSPost2010Prop35
280
     0
102
RTVSPost2010PropOp35
 70
     1
102
RTVSPost2010Prop36
280
     0
102
RTVSPost2010PropOp36
 70
     1
102
RTVSPost2010Prop37
 90
       50
102
RTVSPost2010PropOp37
 70
     1
102
RTVSPost2010Prop38
140
0.0
102
RTVSPost2010PropOp38
 70
     1
102
RTVSPost2010Prop39
140
1.0
102
RTVSPost2010PropOp39
 70
     1
102
RTVSPost2010Prop40
 90
        0
102
RTVSPost2010PropOp40
 70
     1
102
RTVSPost2010Prop41ColorIndex
 90
       18
102
RTVSPost2010Prop41ColorRGB
 90
        0
102
RTVSPost2010PropOp41
 70
     1
102
RTVSPost2010Prop42
 90
       50
102
RTVSPost2010PropOp42
 70
     1
102
RTVSPost2010Prop43
 90
        3
102
RTVSPost2010PropOp43
 70
     1
102
RTVSPost2010Prop44ColorIndex
 90
        5
102
RTVSPost2010Prop44ColorRGB
 90
      255
102
RTVSPost2010PropOp44
 70
     1
102
RTVSPost2010Prop45
280
     0
102
RTVSPost2010PropOp45
 70
     1
102
RTVSPost2010Prop46
 90
       50
102
RTVSPost2010PropOp46
 70
     1
102
RTVSPost2010Prop47
 90
       50
102
RTVSPost2010PropOp47
 70
     1
102
RTVSPost2010Prop48
 90
       50
102
RTVSPost2010PropOp48
 70
     1
102
RTVSPost2010Prop49
280
     0
102
RTVSPost2010PropOp49
 70
     1
102
RTVSPost2010Prop50
 90
       50
102
RTVSPost2010PropOp50
 70
     1
102
RTVSPost2010Prop51ColorIndex
 90
      256
102
RTVSPost2010Prop51ColorRGB
 90
-16777216
102
RTVSPost2010PropOp51
 70
     0
102
RTVSPost2010Prop52
140
1.0
102
RTVSPost2010PropOp52
 70
     0
102
RTVSPost2010Prop53
 90
        2
102
RTVSPost2010PropOp53
 70
     1
102
RTVSPost2010Prop54
  1
strokes_ogs.tif
102
RTVSPost2010PropOp54
 70
     1
102
RTVSPost2010Prop55
280
     0
102
RTVSPost2010PropOp55
 70
     1
102
RTVSPost2010Prop56
140
1.0
102
RTVSPost2010PropOp56
 70
     1
102
RTVSPost2010Prop57
140
1.0
102
RTVSPost2010PropOp57
 70
     1
102
RTVSPropertyOp0
 70
     1
102
RTVSPropertyOp1
 70
     1
102
RTVSPropertyOp2
 70
     1
102
RTVSPropertyOp3
 70
     1
102
RTVSPropertyOp4
 70
     1
102
RTVSPropertyOp5
 70
     1
102
RTVSPropertyOp6
 70
     1
102
RTVSPropertyOp7
 70
     1
102
RTVSPropertyOp8
 70
     1
102
RTVSPropertyOp9
 70
     1
102
RTVSPropertyOp10
 70
     1
102
RTVSPropertyOp11
 70
     1
102
RTVSPropertyOp12
 70
     1
102
RTVSPropertyOp13
 70
     1
102
RTVSPropertyOp14
 70
     1
102
RTVSPropertyOp15
 70
     1
102
RTVSPropertyOp16
 70
     1
102
RTVSPropertyOp17
 70
     1
102
RTVSPropertyOp18
 70
     1
102
RTVSPropertyOp19
 70
     1
102
RTVSPropertyOp20
 70
     1
102
RTVSPropertyOp21
 70
     1
102
RTVSPropertyOp22
 70
     1
102
RTVSPropertyOp23
 70
     1
102
RTVSPropertyOp24
 70
     1
102
RTVSPropertyOp25
 70
     1
102
RTVSPropertyOp26
 70
     1
102
RTVSPropertyOp27
 70
     1
102
RTVSPropertyOp28
 70
     1
102
RTVSPropertyOp29
 70
     1
102
RTVSPropertyOp30
 70
     1
102
RTVSPropertyOp31
 70
     1
102
RTVSPropertyOp32
 70
     1
102
RTVSPropertyOp33
 70
     1
102
RTVSPropertyOp34
 70
     1
102
RTVSPropertyOp35
 70
     1
102
RTVSPropertyOp36
 70
     1
102
RTVSPropertyOp37
 70
     1
102
RTVSPropertyOp38
 70
     1
102
RTVSPropertyOp39
 70
     1
102
RTVSPropertyOp40
 70
     1
102
RTVSPropertyOp41
 70
     1
102
RTVSPropertyOp42
 70
     1
102
RTVSPropertyOp43
 70
     1
102
RTVSPropertyOp44
 70
     1
102
RTVSPropertyOp45
 70
     1
102
RTVSPropertyOp46
 70
     1
102
RTVSPropertyOp47
 70
     1
102
RTVSPropertyOp48
 70
     1
102
RTVSPropertyOp49
 70
     1
102
RTVSPropertyOp50
 70
     1
102
RTVSPropertyOp51
 70
     0
102
RTVSPropertyOp52
 70
     0
102
RTVSPropertyOp53
 70
     1
102
RTVSPropertyOp54
 70
     1
102
RTVSPropertyOp55
 70
     1
102
RTVSPropertyOp56
 70
     1
102
RTVSPropertyOp57
 70
     1
102
RTVSPropertyOp58
 70
     1
102
RTVSPropertyOp59
 70
     1
102
RTVSPropertyOp60
 70
     1
102
RTVSPropertyOp61
 70
     1
102
RTVSPropertyOp62
 70
     1
  0
XRECORD
  5
83F
102
{ACAD_REACTORS
330
83E
102
}
330
83E
100
AcDbXrecord
280
     1
102
RTVSPost2010Prop28
280
     0
102
RTVSPost2010PropOp28
 70
     1
102
RTVSPost2010Prop29
280
     1
102
RTVSPost2010PropOp29
 70
     1
102
RTVSPost2010Prop30
280
     1
102
RTVSPost2010PropOp30
 70
     1
102
RTVSPost2010Prop31
280
     0
102
RTVSPost2010PropOp31
 70
     1
102
RTVSPost2010Prop32
280
     0
102
RTVSPost2010PropOp32
 70
     1
102
RTVSPost2010Prop33
280
     0
102
RTVSPost2010PropOp33
 70
     1
102
RTVSPost2010Prop34
280
     0
102
RTVSPost2010PropOp34
 70
     1
102
RTVSPost2010Prop35
280
     0
102
RTVSPost2010PropOp35
 70
     1
102
RTVSPost2010Prop36
280
     0
102
RTVSPost2010PropOp36
 70
     1
102
RTVSPost2010Prop37
 90
       50
102
RTVSPost2010PropOp37
 70
     1
102
RTVSPost2010Prop38
140
0.0
102
RTVSPost2010PropOp38
 70
     1
102
RTVSPost2010Prop39
140
1.0
102
RTVSPost2010PropOp39
 70
     1
102
RTVSPost2010Prop40
 90
        0
102
RTVSPost2010PropOp40
 70
     1
102
RTVSPost2010Prop41ColorIndex
 90
       18
102
RTVSPost2010Prop41ColorRGB
 90
        0
102
RTVSPost2010PropOp41
 70
     1
102
RTVSPost2010Prop42
 90
       50
102
RTVSPost2010PropOp42
 70
     1
102
RTVSPost2010Prop43
 90
        3
102
RTVSPost2010PropOp43
 70
     1
102
RTVSPost2010Prop44ColorIndex
 90
        5
102
RTVSPost2010Prop44ColorRGB
 90
      255
102
RTVSPost2010PropOp44
 70
     1
102
RTVSPost2010Prop45
280
     0
102
RTVSPost2010PropOp45
 70
     1
102
RTVSPost2010Prop46
 90
       50
102
RTVSPost2010PropOp46
 70
     1
102
RTVSPost2010Prop47
 90
       50
102
RTVSPost2010PropOp47
 70
     1
102
RTVSPost2010Prop48
 90
       50
102
RTVSPost2010PropOp48
 70
     1
102
RTVSPost2010Prop49
280
     0
102
RTVSPost2010PropOp49
 70
     1
102
RTVSPost2010Prop50
 90
       50
102
RTVSPost2010PropOp50
 70
     1
102
RTVSPost2010Prop51ColorIndex
 90
      256
102
RTVSPost2010Prop51ColorRGB
 90
-16777216
102
RTVSPost2010PropOp51
 70
     0
102
RTVSPost2010Prop52
140
1.0
102
RTVSPost2010PropOp52
 70
     0
102
RTVSPost2010Prop53
 90
        2
102
RTVSPost2010PropOp53
 70
     1
102
RTVSPost2010Prop54
  1
strokes_ogs.tif
102
RTVSPost2010PropOp54
 70
     1
102
RTVSPost2010Prop55
280
     0
102
RTVSPost2010PropOp55
 70
     1
102
RTVSPost2010Prop56
140
1.0
102
RTVSPost2010PropOp56
 70
     1
102
RTVSPost2010Prop57
140
1.0
102
RTVSPost2010PropOp57
 70
     1
102
RTVSPropertyOp0
 70
     1
102
RTVSPropertyOp1
 70
     1
102
RTVSPropertyOp2
 70
     1
102
RTVSPropertyOp3
 70
     1
102
RTVSPropertyOp4
 70
     1
102
RTVSPropertyOp5
 70
     1
102
RTVSPropertyOp6
 70
     1
102
RTVSPropertyOp7
 70
     1
102
RTVSPropertyOp8
 70
     1
102
RTVSPropertyOp9
 70
     1
102
RTVSPropertyOp10
 70
     1
102
RTVSPropertyOp11
 70
     1
102
RTVSPropertyOp12
 70
     1
102
RTVSPropertyOp13
 70
     1
102
RTVSPropertyOp14
 70
     1
102
RTVSPropertyOp15
 70
     1
102
RTVSPropertyOp16
 70
     1
102
RTVSPropertyOp17
 70
     1
102
RTVSPropertyOp18
 70
     1
102
RTVSPropertyOp19
 70
     1
102
RTVSPropertyOp20
 70
     1
102
RTVSPropertyOp21
 70
     1
102
RTVSPropertyOp22
 70
     1
102
RTVSPropertyOp23
 70
     1
102
RTVSPropertyOp24
 70
     1
102
RTVSPropertyOp25
 70
     1
102
RTVSPropertyOp26
 70
     1
102
RTVSPropertyOp27
 70
     1
102
RTVSPropertyOp28
 70
     1
102
RTVSPropertyOp29
 70
     1
102
RTVSPropertyOp30
 70
     1
102
RTVSPropertyOp31
 70
     1
102
RTVSPropertyOp32
 70
     1
102
RTVSPropertyOp33
 70
     1
102
RTVSPropertyOp34
 70
     1
102
RTVSPropertyOp35
 70
     1
102
RTVSPropertyOp36
 70
     1
102
RTVSPropertyOp37
 70
     1
102
RTVSPropertyOp38
 70
     1
102
RTVSPropertyOp39
 70
     1
102
RTVSPropertyOp40
 70
     1
102
RTVSPropertyOp41
 70
     1
102
RTVSPropertyOp42
 70
     1
102
RTVSPropertyOp43
 70
     1
102
RTVSPropertyOp44
 70
     1
102
RTVSPropertyOp45
 70
     1
102
RTVSPropertyOp46
 70
     1
102
RTVSPropertyOp47
 70
     1
102
RTVSPropertyOp48
 70
     1
102
RTVSPropertyOp49
 70
     1
102
RTVSPropertyOp50
 70
     1
102
RTVSPropertyOp51
 70
     0
102
RTVSPropertyOp52
 70
     0
102
RTVSPropertyOp53
 70
     1
102
RTVSPropertyOp54
 70
     1
102
RTVSPropertyOp55
 70
     1
102
RTVSPropertyOp56
 70
     1
102
RTVSPropertyOp57
 70
     1
102
RTVSPropertyOp58
 70
     1
102
RTVSPropertyOp59
 70
     1
102
RTVSPropertyOp60
 70
     1
102
RTVSPropertyOp61
 70
     1
102
RTVSPropertyOp62
 70
     1
  0
XRECORD
  5
851
102
{ACAD_REACTORS
330
850
102
}
330
850
100
AcDbXrecord
280
     1
102
RTVSPost2010Prop28
280
     0
102
RTVSPost2010PropOp28
 70
     1
102
RTVSPost2010Prop29
280
     1
102
RTVSPost2010PropOp29
 70
     1
102
RTVSPost2010Prop30
280
     1
102
RTVSPost2010PropOp30
 70
     1
102
RTVSPost2010Prop31
280
     0
102
RTVSPost2010PropOp31
 70
     1
102
RTVSPost2010Prop32
280
     0
102
RTVSPost2010PropOp32
 70
     1
102
RTVSPost2010Prop33
280
     0
102
RTVSPost2010PropOp33
 70
     1
102
RTVSPost2010Prop34
280
     0
102
RTVSPost2010PropOp34
 70
     1
102
RTVSPost2010Prop35
280
     0
102
RTVSPost2010PropOp35
 70
     1
102
RTVSPost2010Prop36
280
     0
102
RTVSPost2010PropOp36
 70
     1
102
RTVSPost2010Prop37
 90
       50
102
RTVSPost2010PropOp37
 70
     1
102
RTVSPost2010Prop38
140
0.0
102
RTVSPost2010PropOp38
 70
     1
102
RTVSPost2010Prop39
140
1.0
102
RTVSPost2010PropOp39
 70
     1
102
RTVSPost2010Prop40
 90
        0
102
RTVSPost2010PropOp40
 70
     1
102
RTVSPost2010Prop41ColorIndex
 90
       18
102
RTVSPost2010Prop41ColorRGB
 90
        0
102
RTVSPost2010PropOp41
 70
     1
102
RTVSPost2010Prop42
 90
       50
102
RTVSPost2010PropOp42
 70
     1
102
RTVSPost2010Prop43
 90
        3
102
RTVSPost2010PropOp43
 70
     1
102
RTVSPost2010Prop44ColorIndex
 90
        5
102
RTVSPost2010Prop44ColorRGB
 90
      255
102
RTVSPost2010PropOp44
 70
     1
102
RTVSPost2010Prop45
280
     0
102
RTVSPost2010PropOp45
 70
     1
102
RTVSPost2010Prop46
 90
       50
102
RTVSPost2010PropOp46
 70
     1
102
RTVSPost2010Prop47
 90
       50
102
RTVSPost2010PropOp47
 70
     1
102
RTVSPost2010Prop48
 90
       50
102
RTVSPost2010PropOp48
 70
     1
102
RTVSPost2010Prop49
280
     0
102
RTVSPost2010PropOp49
 70
     1
102
RTVSPost2010Prop50
 90
       50
102
RTVSPost2010PropOp50
 70
     1
102
RTVSPost2010Prop51ColorIndex
 90
      256
102
RTVSPost2010Prop51ColorRGB
 90
-16777216
102
RTVSPost2010PropOp51
 70
     0
102
RTVSPost2010Prop52
140
1.0
102
RTVSPost2010PropOp52
 70
     0
102
RTVSPost2010Prop53
 90
        2
102
RTVSPost2010PropOp53
 70
     1
102
RTVSPost2010Prop54
  1
strokes_ogs.tif
102
RTVSPost2010PropOp54
 70
     1
102
RTVSPost2010Prop55
280
     0
102
RTVSPost2010PropOp55
 70
     1
102
RTVSPost2010Prop56
140
1.0
102
RTVSPost2010PropOp56
 70
     1
102
RTVSPost2010Prop57
140
1.0
102
RTVSPost2010PropOp57
 70
     1
102
RTVSPropertyOp0
 70
     0
102
RTVSPropertyOp1
 70
     0
102
RTVSPropertyOp2
 70
     0
102
RTVSPropertyOp3
 70
     0
102
RTVSPropertyOp4
 70
     0
102
RTVSPropertyOp5
 70
     0
102
RTVSPropertyOp6
 70
     0
102
RTVSPropertyOp7
 70
     0
102
RTVSPropertyOp8
 70
     0
102
RTVSPropertyOp9
 70
     0
102
RTVSPropertyOp10
 70
     0
102
RTVSPropertyOp11
 70
     0
102
RTVSPropertyOp12
 70
     0
102
RTVSPropertyOp13
 70
     0
102
RTVSPropertyOp14
 70
     2
102
RTVSPropertyOp15
 70
     0
102
RTVSPropertyOp16
 70
     0
102
RTVSPropertyOp17
 70
     0
102
RTVSPropertyOp18
 70
     0
102
RTVSPropertyOp19
 70
     0
102
RTVSPropertyOp20
 70
     0
102
RTVSPropertyOp21
 70
     0
102
RTVSPropertyOp22
 70
     0
102
RTVSPropertyOp23
 70
     0
102
RTVSPropertyOp24
 70
     0
102
RTVSPropertyOp25
 70
     0
102
RTVSPropertyOp26
 70
     0
102
RTVSPropertyOp27
 70
     0
102
RTVSPropertyOp28
 70
     1
102
RTVSPropertyOp29
 70
     1
102
RTVSPropertyOp30
 70
     1
102
RTVSPropertyOp31
 70
     1
102
RTVSPropertyOp32
 70
     1
102
RTVSPropertyOp33
 70
     1
102
RTVSPropertyOp34
 70
     1
102
RTVSPropertyOp35
 70
     1
102
RTVSPropertyOp36
 70
     1
102
RTVSPropertyOp37
 70
     1
102
RTVSPropertyOp38
 70
     1
102
RTVSPropertyOp39
 70
     1
102
RTVSPropertyOp40
 70
     1
102
RTVSPropertyOp41
 70
     1
102
RTVSPropertyOp42
 70
     1
102
RTVSPropertyOp43
 70
     1
102
RTVSPropertyOp44
 70
     1
102
RTVSPropertyOp45
 70
     1
102
RTVSPropertyOp46
 70
     1
102
RTVSPropertyOp47
 70
     1
102
RTVSPropertyOp48
 70
     1
102
RTVSPropertyOp49
 70
     1
102
RTVSPropertyOp50
 70
     1
102
RTVSPropertyOp51
 70
     0
102
RTVSPropertyOp52
 70
     0
102
RTVSPropertyOp53
 70
     1
102
RTVSPropertyOp54
 70
     1
102
RTVSPropertyOp55
 70
     1
102
RTVSPropertyOp56
 70
     1
102
RTVSPropertyOp57
 70
     1
102
RTVSPropertyOp58
 70
     1
102
RTVSPropertyOp59
 70
     1
102
RTVSPropertyOp60
 70
     1
102
RTVSPropertyOp61
 70
     1
102
RTVSPropertyOp62
 70
     1
  0
XRECORD
  5
84B
102
{ACAD_REACTORS
330
84A
102
}
330
84A
100
AcDbXrecord
280
     1
102
RTVSPost2010Prop28
280
     0
102
RTVSPost2010PropOp28
 70
     1
102
RTVSPost2010Prop29
280
     1
102
RTVSPost2010PropOp29
 70
     1
102
RTVSPost2010Prop30
280
     1
102
RTVSPost2010PropOp30
 70
     1
102
RTVSPost2010Prop31
280
     0
102
RTVSPost2010PropOp31
 70
     1
102
RTVSPost2010Prop32
280
     0
102
RTVSPost2010PropOp32
 70
     1
102
RTVSPost2010Prop33
280
     0
102
RTVSPost2010PropOp33
 70
     1
102
RTVSPost2010Prop34
280
     0
102
RTVSPost2010PropOp34
 70
     1
102
RTVSPost2010Prop35
280
     0
102
RTVSPost2010PropOp35
 70
     1
102
RTVSPost2010Prop36
280
     0
102
RTVSPost2010PropOp36
 70
     1
102
RTVSPost2010Prop37
 90
       50
102
RTVSPost2010PropOp37
 70
     1
102
RTVSPost2010Prop38
140
0.0
102
RTVSPost2010PropOp38
 70
     1
102
RTVSPost2010Prop39
140
1.0
102
RTVSPost2010PropOp39
 70
     1
102
RTVSPost2010Prop40
 90
        0
102
RTVSPost2010PropOp40
 70
     1
102
RTVSPost2010Prop41ColorIndex
 90
       18
102
RTVSPost2010Prop41ColorRGB
 90
        0
102
RTVSPost2010PropOp41
 70
     1
102
RTVSPost2010Prop42
 90
       50
102
RTVSPost2010PropOp42
 70
     1
102
RTVSPost2010Prop43
 90
        3
102
RTVSPost2010PropOp43
 70
     1
102
RTVSPost2010Prop44ColorIndex
 90
        5
102
RTVSPost2010Prop44ColorRGB
 90
      255
102
RTVSPost2010PropOp44
 70
     1
102
RTVSPost2010Prop45
280
     0
102
RTVSPost2010PropOp45
 70
     1
102
RTVSPost2010Prop46
 90
       50
102
RTVSPost2010PropOp46
 70
     1
102
RTVSPost2010Prop47
 90
       50
102
RTVSPost2010PropOp47
 70
     1
102
RTVSPost2010Prop48
 90
       50
102
RTVSPost2010PropOp48
 70
     1
102
RTVSPost2010Prop49
280
     0
102
RTVSPost2010PropOp49
 70
     1
102
RTVSPost2010Prop50
 90
       50
102
RTVSPost2010PropOp50
 70
     1
102
RTVSPost2010Prop51ColorIndex
 90
      256
102
RTVSPost2010Prop51ColorRGB
 90
-16777216
102
RTVSPost2010PropOp51
 70
     0
102
RTVSPost2010Prop52
140
1.0
102
RTVSPost2010PropOp52
 70
     0
102
RTVSPost2010Prop53
 90
        2
102
RTVSPost2010PropOp53
 70
     1
102
RTVSPost2010Prop54
  1
strokes_ogs.tif
102
RTVSPost2010PropOp54
 70
     1
102
RTVSPost2010Prop55
280
     0
102
RTVSPost2010PropOp55
 70
     1
102
RTVSPost2010Prop56
140
1.0
102
RTVSPost2010PropOp56
 70
     1
102
RTVSPost2010Prop57
140
1.0
102
RTVSPost2010PropOp57
 70
     1
102
RTVSPropertyOp0
 70
     1
102
RTVSPropertyOp1
 70
     1
102
RTVSPropertyOp2
 70
     1
102
RTVSPropertyOp3
 70
     1
102
RTVSPropertyOp4
 70
     1
102
RTVSPropertyOp5
 70
     1
102
RTVSPropertyOp6
 70
     1
102
RTVSPropertyOp7
 70
     1
102
RTVSPropertyOp8
 70
     1
102
RTVSPropertyOp9
 70
     1
102
RTVSPropertyOp10
 70
     1
102
RTVSPropertyOp11
 70
     1
102
RTVSPropertyOp12
 70
     1
102
RTVSPropertyOp13
 70
     1
102
RTVSPropertyOp14
 70
     1
102
RTVSPropertyOp15
 70
     1
102
RTVSPropertyOp16
 70
     1
102
RTVSPropertyOp17
 70
     1
102
RTVSPropertyOp18
 70
     1
102
RTVSPropertyOp19
 70
     1
102
RTVSPropertyOp20
 70
     1
102
RTVSPropertyOp21
 70
     1
102
RTVSPropertyOp22
 70
     1
102
RTVSPropertyOp23
 70
     1
102
RTVSPropertyOp24
 70
     1
102
RTVSPropertyOp25
 70
     1
102
RTVSPropertyOp26
 70
     1
102
RTVSPropertyOp27
 70
     1
102
RTVSPropertyOp28
 70
     1
102
RTVSPropertyOp29
 70
     1
102
RTVSPropertyOp30
 70
     1
102
RTVSPropertyOp31
 70
     1
102
RTVSPropertyOp32
 70
     1
102
RTVSPropertyOp33
 70
     1
102
RTVSPropertyOp34
 70
     1
102
RTVSPropertyOp35
 70
     1
102
RTVSPropertyOp36
 70
     1
102
RTVSPropertyOp37
 70
     1
102
RTVSPropertyOp38
 70
     1
102
RTVSPropertyOp39
 70
     1
102
RTVSPropertyOp40
 70
     1
102
RTVSPropertyOp41
 70
     1
102
RTVSPropertyOp42
 70
     1
102
RTVSPropertyOp43
 70
     1
102
RTVSPropertyOp44
 70
     1
102
RTVSPropertyOp45
 70
     1
102
RTVSPropertyOp46
 70
     1
102
RTVSPropertyOp47
 70
     1
102
RTVSPropertyOp48
 70
     1
102
RTVSPropertyOp49
 70
     1
102
RTVSPropertyOp50
 70
     1
102
RTVSPropertyOp51
 70
     0
102
RTVSPropertyOp52
 70
     0
102
RTVSPropertyOp53
 70
     1
102
RTVSPropertyOp54
 70
     1
102
RTVSPropertyOp55
 70
     1
102
RTVSPropertyOp56
 70
     1
102
RTVSPropertyOp57
 70
     1
102
RTVSPropertyOp58
 70
     1
102
RTVSPropertyOp59
 70
     1
102
RTVSPropertyOp60
 70
     1
102
RTVSPropertyOp61
 70
     1
102
RTVSPropertyOp62
 70
     1
  0
XRECORD
  5
853
102
{ACAD_REACTORS
330
852
102
}
330
852
100
AcDbXrecord
280
     1
102
RTVSPost2010Prop28
280
     0
102
RTVSPost2010PropOp28
 70
     1
102
RTVSPost2010Prop29
280
     1
102
RTVSPost2010PropOp29
 70
     1
102
RTVSPost2010Prop30
280
     1
102
RTVSPost2010PropOp30
 70
     1
102
RTVSPost2010Prop31
280
     0
102
RTVSPost2010PropOp31
 70
     1
102
RTVSPost2010Prop32
280
     0
102
RTVSPost2010PropOp32
 70
     1
102
RTVSPost2010Prop33
280
     0
102
RTVSPost2010PropOp33
 70
     1
102
RTVSPost2010Prop34
280
     0
102
RTVSPost2010PropOp34
 70
     1
102
RTVSPost2010Prop35
280
     0
102
RTVSPost2010PropOp35
 70
     1
102
RTVSPost2010Prop36
280
     0
102
RTVSPost2010PropOp36
 70
     1
102
RTVSPost2010Prop37
 90
       50
102
RTVSPost2010PropOp37
 70
     1
102
RTVSPost2010Prop38
140
0.0
102
RTVSPost2010PropOp38
 70
     1
102
RTVSPost2010Prop39
140
1.0
102
RTVSPost2010PropOp39
 70
     1
102
RTVSPost2010Prop40
 90
        0
102
RTVSPost2010PropOp40
 70
     1
102
RTVSPost2010Prop41ColorIndex
 90
       18
102
RTVSPost2010Prop41ColorRGB
 90
        0
102
RTVSPost2010PropOp41
 70
     1
102
RTVSPost2010Prop42
 90
       50
102
RTVSPost2010PropOp42
 70
     1
102
RTVSPost2010Prop43
 90
        3
102
RTVSPost2010PropOp43
 70
     1
102
RTVSPost2010Prop44ColorIndex
 90
        5
102
RTVSPost2010Prop44ColorRGB
 90
      255
102
RTVSPost2010PropOp44
 70
     1
102
RTVSPost2010Prop45
280
     0
102
RTVSPost2010PropOp45
 70
     1
102
RTVSPost2010Prop46
 90
       50
102
RTVSPost2010PropOp46
 70
     1
102
RTVSPost2010Prop47
 90
       50
102
RTVSPost2010PropOp47
 70
     1
102
RTVSPost2010Prop48
 90
       50
102
RTVSPost2010PropOp48
 70
     1
102
RTVSPost2010Prop49
280
     0
102
RTVSPost2010PropOp49
 70
     1
102
RTVSPost2010Prop50
 90
       50
102
RTVSPost2010PropOp50
 70
     1
102
RTVSPost2010Prop51ColorIndex
 90
      256
102
RTVSPost2010Prop51ColorRGB
 90
-16777216
102
RTVSPost2010PropOp51
 70
     0
102
RTVSPost2010Prop52
140
1.0
102
RTVSPost2010PropOp52
 70
     0
102
RTVSPost2010Prop53
 90
        2
102
RTVSPost2010PropOp53
 70
     1
102
RTVSPost2010Prop54
  1
strokes_ogs.tif
102
RTVSPost2010PropOp54
 70
     1
102
RTVSPost2010Prop55
280
     0
102
RTVSPost2010PropOp55
 70
     1
102
RTVSPost2010Prop56
140
1.0
102
RTVSPost2010PropOp56
 70
     1
102
RTVSPost2010Prop57
140
1.0
102
RTVSPost2010PropOp57
 70
     1
102
RTVSPropertyOp0
 70
     0
102
RTVSPropertyOp1
 70
     0
102
RTVSPropertyOp2
 70
     0
102
RTVSPropertyOp3
 70
     0
102
RTVSPropertyOp4
 70
     0
102
RTVSPropertyOp5
 70
     0
102
RTVSPropertyOp6
 70
     0
102
RTVSPropertyOp7
 70
     0
102
RTVSPropertyOp8
 70
     0
102
RTVSPropertyOp9
 70
     0
102
RTVSPropertyOp10
 70
     0
102
RTVSPropertyOp11
 70
     0
102
RTVSPropertyOp12
 70
     0
102
RTVSPropertyOp13
 70
     0
102
RTVSPropertyOp14
 70
     2
102
RTVSPropertyOp15
 70
     0
102
RTVSPropertyOp16
 70
     0
102
RTVSPropertyOp17
 70
     0
102
RTVSPropertyOp18
 70
     0
102
RTVSPropertyOp19
 70
     0
102
RTVSPropertyOp20
 70
     0
102
RTVSPropertyOp21
 70
     0
102
RTVSPropertyOp22
 70
     0
102
RTVSPropertyOp23
 70
     0
102
RTVSPropertyOp24
 70
     0
102
RTVSPropertyOp25
 70
     0
102
RTVSPropertyOp26
 70
     0
102
RTVSPropertyOp27
 70
     0
102
RTVSPropertyOp28
 70
     1
102
RTVSPropertyOp29
 70
     1
102
RTVSPropertyOp30
 70
     1
102
RTVSPropertyOp31
 70
     1
102
RTVSPropertyOp32
 70
     1
102
RTVSPropertyOp33
 70
     1
102
RTVSPropertyOp34
 70
     1
102
RTVSPropertyOp35
 70
     1
102
RTVSPropertyOp36
 70
     1
102
RTVSPropertyOp37
 70
     1
102
RTVSPropertyOp38
 70
     1
102
RTVSPropertyOp39
 70
     1
102
RTVSPropertyOp40
 70
     1
102
RTVSPropertyOp41
 70
     1
102
RTVSPropertyOp42
 70
     1
102
RTVSPropertyOp43
 70
     1
102
RTVSPropertyOp44
 70
     1
102
RTVSPropertyOp45
 70
     1
102
RTVSPropertyOp46
 70
     1
102
RTVSPropertyOp47
 70
     1
102
RTVSPropertyOp48
 70
     1
102
RTVSPropertyOp49
 70
     1
102
RTVSPropertyOp50
 70
     1
102
RTVSPropertyOp51
 70
     0
102
RTVSPropertyOp52
 70
     0
102
RTVSPropertyOp53
 70
     1
102
RTVSPropertyOp54
 70
     1
102
RTVSPropertyOp55
 70
     1
102
RTVSPropertyOp56
 70
     1
102
RTVSPropertyOp57
 70
     1
102
RTVSPropertyOp58
 70
     1
102
RTVSPropertyOp59
 70
     1
102
RTVSPropertyOp60
 70
     1
102
RTVSPropertyOp61
 70
     1
102
RTVSPropertyOp62
 70
     1
  0
XRECORD
  5
843
102
{ACAD_REACTORS
330
842
102
}
330
842
100
AcDbXrecord
280
     1
102
RTVSPost2010Prop28
280
     0
102
RTVSPost2010PropOp28
 70
     1
102
RTVSPost2010Prop29
280
     1
102
RTVSPost2010PropOp29
 70
     1
102
RTVSPost2010Prop30
280
     1
102
RTVSPost2010PropOp30
 70
     1
102
RTVSPost2010Prop31
280
     0
102
RTVSPost2010PropOp31
 70
     1
102
RTVSPost2010Prop32
280
     0
102
RTVSPost2010PropOp32
 70
     1
102
RTVSPost2010Prop33
280
     0
102
RTVSPost2010PropOp33
 70
     1
102
RTVSPost2010Prop34
280
     0
102
RTVSPost2010PropOp34
 70
     1
102
RTVSPost2010Prop35
280
     0
102
RTVSPost2010PropOp35
 70
     1
102
RTVSPost2010Prop36
280
     0
102
RTVSPost2010PropOp36
 70
     1
102
RTVSPost2010Prop37
 90
       50
102
RTVSPost2010PropOp37
 70
     1
102
RTVSPost2010Prop38
140
0.0
102
RTVSPost2010PropOp38
 70
     1
102
RTVSPost2010Prop39
140
1.0
102
RTVSPost2010PropOp39
 70
     1
102
RTVSPost2010Prop40
 90
        0
102
RTVSPost2010PropOp40
 70
     1
102
RTVSPost2010Prop41ColorIndex
 90
       18
102
RTVSPost2010Prop41ColorRGB
 90
        0
102
RTVSPost2010PropOp41
 70
     1
102
RTVSPost2010Prop42
 90
       50
102
RTVSPost2010PropOp42
 70
     1
102
RTVSPost2010Prop43
 90
        3
102
RTVSPost2010PropOp43
 70
     1
102
RTVSPost2010Prop44ColorIndex
 90
        5
102
RTVSPost2010Prop44ColorRGB
 90
      255
102
RTVSPost2010PropOp44
 70
     1
102
RTVSPost2010Prop45
280
     0
102
RTVSPost2010PropOp45
 70
     1
102
RTVSPost2010Prop46
 90
       50
102
RTVSPost2010PropOp46
 70
     1
102
RTVSPost2010Prop47
 90
       50
102
RTVSPost2010PropOp47
 70
     1
102
RTVSPost2010Prop48
 90
       50
102
RTVSPost2010PropOp48
 70
     1
102
RTVSPost2010Prop49
280
     0
102
RTVSPost2010PropOp49
 70
     1
102
RTVSPost2010Prop50
 90
       50
102
RTVSPost2010PropOp50
 70
     1
102
RTVSPost2010Prop51ColorIndex
 90
      256
102
RTVSPost2010Prop51ColorRGB
 90
-16777216
102
RTVSPost2010PropOp51
 70
     0
102
RTVSPost2010Prop52
140
1.0
102
RTVSPost2010PropOp52
 70
     0
102
RTVSPost2010Prop53
 90
        2
102
RTVSPost2010PropOp53
 70
     1
102
RTVSPost2010Prop54
  1
strokes_ogs.tif
102
RTVSPost2010PropOp54
 70
     1
102
RTVSPost2010Prop55
280
     0
102
RTVSPost2010PropOp55
 70
     1
102
RTVSPost2010Prop56
140
1.0
102
RTVSPost2010PropOp56
 70
     1
102
RTVSPost2010Prop57
140
1.0
102
RTVSPost2010PropOp57
 70
     1
102
RTVSPropertyOp0
 70
     1
102
RTVSPropertyOp1
 70
     1
102
RTVSPropertyOp2
 70
     1
102
RTVSPropertyOp3
 70
     1
102
RTVSPropertyOp4
 70
     1
102
RTVSPropertyOp5
 70
     1
102
RTVSPropertyOp6
 70
     1
102
RTVSPropertyOp7
 70
     1
102
RTVSPropertyOp8
 70
     1
102
RTVSPropertyOp9
 70
     1
102
RTVSPropertyOp10
 70
     1
102
RTVSPropertyOp11
 70
     1
102
RTVSPropertyOp12
 70
     1
102
RTVSPropertyOp13
 70
     1
102
RTVSPropertyOp14
 70
     1
102
RTVSPropertyOp15
 70
     1
102
RTVSPropertyOp16
 70
     1
102
RTVSPropertyOp17
 70
     1
102
RTVSPropertyOp18
 70
     1
102
RTVSPropertyOp19
 70
     1
102
RTVSPropertyOp20
 70
     1
102
RTVSPropertyOp21
 70
     1
102
RTVSPropertyOp22
 70
     1
102
RTVSPropertyOp23
 70
     1
102
RTVSPropertyOp24
 70
     1
102
RTVSPropertyOp25
 70
     1
102
RTVSPropertyOp26
 70
     1
102
RTVSPropertyOp27
 70
     1
102
RTVSPropertyOp28
 70
     1
102
RTVSPropertyOp29
 70
     1
102
RTVSPropertyOp30
 70
     1
102
RTVSPropertyOp31
 70
     1
102
RTVSPropertyOp32
 70
     1
102
RTVSPropertyOp33
 70
     1
102
RTVSPropertyOp34
 70
     1
102
RTVSPropertyOp35
 70
     1
102
RTVSPropertyOp36
 70
     1
102
RTVSPropertyOp37
 70
     1
102
RTVSPropertyOp38
 70
     1
102
RTVSPropertyOp39
 70
     1
102
RTVSPropertyOp40
 70
     1
102
RTVSPropertyOp41
 70
     1
102
RTVSPropertyOp42
 70
     1
102
RTVSPropertyOp43
 70
     1
102
RTVSPropertyOp44
 70
     1
102
RTVSPropertyOp45
 70
     1
102
RTVSPropertyOp46
 70
     1
102
RTVSPropertyOp47
 70
     1
102
RTVSPropertyOp48
 70
     1
102
RTVSPropertyOp49
 70
     1
102
RTVSPropertyOp50
 70
     1
102
RTVSPropertyOp51
 70
     0
102
RTVSPropertyOp52
 70
     0
102
RTVSPropertyOp53
 70
     1
102
RTVSPropertyOp54
 70
     1
102
RTVSPropertyOp55
 70
     1
102
RTVSPropertyOp56
 70
     1
102
RTVSPropertyOp57
 70
     1
102
RTVSPropertyOp58
 70
     1
102
RTVSPropertyOp59
 70
     1
102
RTVSPropertyOp60
 70
     1
102
RTVSPropertyOp61
 70
     1
102
RTVSPropertyOp62
 70
     1
  0
XRECORD
  5
85F
102
{ACAD_REACTORS
330
85E
102
}
330
85E
100
AcDbXrecord
280
     1
102
RTVSPost2010Prop28
280
     0
102
RTVSPost2010PropOp28
 70
     1
102
RTVSPost2010Prop29
280
     1
102
RTVSPost2010PropOp29
 70
     1
102
RTVSPost2010Prop30
280
     1
102
RTVSPost2010PropOp30
 70
     1
102
RTVSPost2010Prop31
280
     0
102
RTVSPost2010PropOp31
 70
     1
102
RTVSPost2010Prop32
280
     0
102
RTVSPost2010PropOp32
 70
     1
102
RTVSPost2010Prop33
280
     0
102
RTVSPost2010PropOp33
 70
     1
102
RTVSPost2010Prop34
280
     0
102
RTVSPost2010PropOp34
 70
     1
102
RTVSPost2010Prop35
280
     0
102
RTVSPost2010PropOp35
 70
     1
102
RTVSPost2010Prop36
280
     0
102
RTVSPost2010PropOp36
 70
     1
102
RTVSPost2010Prop37
 90
       50
102
RTVSPost2010PropOp37
 70
     1
102
RTVSPost2010Prop38
140
0.0
102
RTVSPost2010PropOp38
 70
     1
102
RTVSPost2010Prop39
140
1.0
102
RTVSPost2010PropOp39
 70
     1
102
RTVSPost2010Prop40
 90
        0
102
RTVSPost2010PropOp40
 70
     1
102
RTVSPost2010Prop41ColorIndex
 90
       18
102
RTVSPost2010Prop41ColorRGB
 90
        0
102
RTVSPost2010PropOp41
 70
     1
102
RTVSPost2010Prop42
 90
       50
102
RTVSPost2010PropOp42
 70
     1
102
RTVSPost2010Prop43
 90
        3
102
RTVSPost2010PropOp43
 70
     1
102
RTVSPost2010Prop44ColorIndex
 90
        5
102
RTVSPost2010Prop44ColorRGB
 90
      255
102
RTVSPost2010PropOp44
 70
     1
102
RTVSPost2010Prop45
280
     0
102
RTVSPost2010PropOp45
 70
     1
102
RTVSPost2010Prop46
 90
       50
102
RTVSPost2010PropOp46
 70
     1
102
RTVSPost2010Prop47
 90
       50
102
RTVSPost2010PropOp47
 70
     1
102
RTVSPost2010Prop48
 90
       50
102
RTVSPost2010PropOp48
 70
     1
102
RTVSPost2010Prop49
280
     0
102
RTVSPost2010PropOp49
 70
     1
102
RTVSPost2010Prop50
 90
       50
102
RTVSPost2010PropOp50
 70
     1
102
RTVSPost2010Prop51ColorIndex
 90
      256
102
RTVSPost2010Prop51ColorRGB
 90
-16777216
102
RTVSPost2010PropOp51
 70
     0
102
RTVSPost2010Prop52
140
1.0
102
RTVSPost2010PropOp52
 70
     0
102
RTVSPost2010Prop53
 90
        2
102
RTVSPost2010PropOp53
 70
     1
102
RTVSPost2010Prop54
  1
strokes_ogs.tif
102
RTVSPost2010PropOp54
 70
     1
102
RTVSPost2010Prop55
280
     0
102
RTVSPost2010PropOp55
 70
     1
102
RTVSPost2010Prop56
140
1.0
102
RTVSPost2010PropOp56
 70
     1
102
RTVSPost2010Prop57
140
1.0
102
RTVSPost2010PropOp57
 70
     1
102
RTVSPropertyOp0
 70
     1
102
RTVSPropertyOp1
 70
     1
102
RTVSPropertyOp2
 70
     1
102
RTVSPropertyOp3
 70
     1
102
RTVSPropertyOp4
 70
     1
102
RTVSPropertyOp5
 70
     1
102
RTVSPropertyOp6
 70
     1
102
RTVSPropertyOp7
 70
     1
102
RTVSPropertyOp8
 70
     1
102
RTVSPropertyOp9
 70
     1
102
RTVSPropertyOp10
 70
     1
102
RTVSPropertyOp11
 70
     1
102
RTVSPropertyOp12
 70
     1
102
RTVSPropertyOp13
 70
     1
102
RTVSPropertyOp14
 70
     1
102
RTVSPropertyOp15
 70
     1
102
RTVSPropertyOp16
 70
     1
102
RTVSPropertyOp17
 70
     1
102
RTVSPropertyOp18
 70
     1
102
RTVSPropertyOp19
 70
     1
102
RTVSPropertyOp20
 70
     1
102
RTVSPropertyOp21
 70
     1
102
RTVSPropertyOp22
 70
     1
102
RTVSPropertyOp23
 70
     1
102
RTVSPropertyOp24
 70
     1
102
RTVSPropertyOp25
 70
     1
102
RTVSPropertyOp26
 70
     1
102
RTVSPropertyOp27
 70
     1
102
RTVSPropertyOp28
 70
     1
102
RTVSPropertyOp29
 70
     1
102
RTVSPropertyOp30
 70
     1
102
RTVSPropertyOp31
 70
     1
102
RTVSPropertyOp32
 70
     1
102
RTVSPropertyOp33
 70
     1
102
RTVSPropertyOp34
 70
     1
102
RTVSPropertyOp35
 70
     1
102
RTVSPropertyOp36
 70
     1
102
RTVSPropertyOp37
 70
     1
102
RTVSPropertyOp38
 70
     1
102
RTVSPropertyOp39
 70
     1
102
RTVSPropertyOp40
 70
     1
102
RTVSPropertyOp41
 70
     1
102
RTVSPropertyOp42
 70
     1
102
RTVSPropertyOp43
 70
     1
102
RTVSPropertyOp44
 70
     1
102
RTVSPropertyOp45
 70
     1
102
RTVSPropertyOp46
 70
     1
102
RTVSPropertyOp47
 70
     1
102
RTVSPropertyOp48
 70
     1
102
RTVSPropertyOp49
 70
     1
102
RTVSPropertyOp50
 70
     1
102
RTVSPropertyOp51
 70
     0
102
RTVSPropertyOp52
 70
     0
102
RTVSPropertyOp53
 70
     1
102
RTVSPropertyOp54
 70
     1
102
RTVSPropertyOp55
 70
     1
102
RTVSPropertyOp56
 70
     1
102
RTVSPropertyOp57
 70
     1
102
RTVSPropertyOp58
 70
     1
102
RTVSPropertyOp59
 70
     1
102
RTVSPropertyOp60
 70
     1
102
RTVSPropertyOp61
 70
     1
102
RTVSPropertyOp62
 70
     1
  0
XRECORD
  5
85D
102
{ACAD_REACTORS
330
85C
102
}
330
85C
100
AcDbXrecord
280
     1
102
RTVSPost2010Prop28
280
     0
102
RTVSPost2010PropOp28
 70
     1
102
RTVSPost2010Prop29
280
     1
102
RTVSPost2010PropOp29
 70
     1
102
RTVSPost2010Prop30
280
     1
102
RTVSPost2010PropOp30
 70
     1
102
RTVSPost2010Prop31
280
     0
102
RTVSPost2010PropOp31
 70
     1
102
RTVSPost2010Prop32
280
     0
102
RTVSPost2010PropOp32
 70
     1
102
RTVSPost2010Prop33
280
     0
102
RTVSPost2010PropOp33
 70
     1
102
RTVSPost2010Prop34
280
     0
102
RTVSPost2010PropOp34
 70
     1
102
RTVSPost2010Prop35
280
     0
102
RTVSPost2010PropOp35
 70
     1
102
RTVSPost2010Prop36
280
     0
102
RTVSPost2010PropOp36
 70
     1
102
RTVSPost2010Prop37
 90
       50
102
RTVSPost2010PropOp37
 70
     1
102
RTVSPost2010Prop38
140
0.0
102
RTVSPost2010PropOp38
 70
     1
102
RTVSPost2010Prop39
140
1.0
102
RTVSPost2010PropOp39
 70
     1
102
RTVSPost2010Prop40
 90
        0
102
RTVSPost2010PropOp40
 70
     1
102
RTVSPost2010Prop41ColorIndex
 90
       18
102
RTVSPost2010Prop41ColorRGB
 90
        0
102
RTVSPost2010PropOp41
 70
     1
102
RTVSPost2010Prop42
 90
       50
102
RTVSPost2010PropOp42
 70
     1
102
RTVSPost2010Prop43
 90
        3
102
RTVSPost2010PropOp43
 70
     1
102
RTVSPost2010Prop44ColorIndex
 90
        5
102
RTVSPost2010Prop44ColorRGB
 90
      255
102
RTVSPost2010PropOp44
 70
     1
102
RTVSPost2010Prop45
280
     0
102
RTVSPost2010PropOp45
 70
     1
102
RTVSPost2010Prop46
 90
       50
102
RTVSPost2010PropOp46
 70
     1
102
RTVSPost2010Prop47
 90
       50
102
RTVSPost2010PropOp47
 70
     1
102
RTVSPost2010Prop48
 90
       50
102
RTVSPost2010PropOp48
 70
     1
102
RTVSPost2010Prop49
280
     0
102
RTVSPost2010PropOp49
 70
     1
102
RTVSPost2010Prop50
 90
       50
102
RTVSPost2010PropOp50
 70
     1
102
RTVSPost2010Prop51ColorIndex
 90
      256
102
RTVSPost2010Prop51ColorRGB
 90
-16777216
102
RTVSPost2010PropOp51
 70
     0
102
RTVSPost2010Prop52
140
1.0
102
RTVSPost2010PropOp52
 70
     0
102
RTVSPost2010Prop53
 90
        2
102
RTVSPost2010PropOp53
 70
     1
102
RTVSPost2010Prop54
  1
strokes_ogs.tif
102
RTVSPost2010PropOp54
 70
     1
102
RTVSPost2010Prop55
280
     0
102
RTVSPost2010PropOp55
 70
     1
102
RTVSPost2010Prop56
140
1.0
102
RTVSPost2010PropOp56
 70
     1
102
RTVSPost2010Prop57
140
1.0
102
RTVSPost2010PropOp57
 70
     1
102
RTVSPropertyOp0
 70
     1
102
RTVSPropertyOp1
 70
     1
102
RTVSPropertyOp2
 70
     1
102
RTVSPropertyOp3
 70
     1
102
RTVSPropertyOp4
 70
     1
102
RTVSPropertyOp5
 70
     1
102
RTVSPropertyOp6
 70
     1
102
RTVSPropertyOp7
 70
     1
102
RTVSPropertyOp8
 70
     1
102
RTVSPropertyOp9
 70
     1
102
RTVSPropertyOp10
 70
     1
102
RTVSPropertyOp11
 70
     1
102
RTVSPropertyOp12
 70
     1
102
RTVSPropertyOp13
 70
     1
102
RTVSPropertyOp14
 70
     1
102
RTVSPropertyOp15
 70
     1
102
RTVSPropertyOp16
 70
     1
102
RTVSPropertyOp17
 70
     1
102
RTVSPropertyOp18
 70
     1
102
RTVSPropertyOp19
 70
     1
102
RTVSPropertyOp20
 70
     1
102
RTVSPropertyOp21
 70
     1
102
RTVSPropertyOp22
 70
     1
102
RTVSPropertyOp23
 70
     1
102
RTVSPropertyOp24
 70
     1
102
RTVSPropertyOp25
 70
     1
102
RTVSPropertyOp26
 70
     1
102
RTVSPropertyOp27
 70
     1
102
RTVSPropertyOp28
 70
     1
102
RTVSPropertyOp29
 70
     1
102
RTVSPropertyOp30
 70
     1
102
RTVSPropertyOp31
 70
     1
102
RTVSPropertyOp32
 70
     1
102
RTVSPropertyOp33
 70
     1
102
RTVSPropertyOp34
 70
     1
102
RTVSPropertyOp35
 70
     1
102
RTVSPropertyOp36
 70
     1
102
RTVSPropertyOp37
 70
     1
102
RTVSPropertyOp38
 70
     1
102
RTVSPropertyOp39
 70
     1
102
RTVSPropertyOp40
 70
     1
102
RTVSPropertyOp41
 70
     1
102
RTVSPropertyOp42
 70
     1
102
RTVSPropertyOp43
 70
     1
102
RTVSPropertyOp44
 70
     1
102
RTVSPropertyOp45
 70
     1
102
RTVSPropertyOp46
 70
     1
102
RTVSPropertyOp47
 70
     1
102
RTVSPropertyOp48
 70
     1
102
RTVSPropertyOp49
 70
     1
102
RTVSPropertyOp50
 70
     1
102
RTVSPropertyOp51
 70
     0
102
RTVSPropertyOp52
 70
     0
102
RTVSPropertyOp53
 70
     1
102
RTVSPropertyOp54
 70
     1
102
RTVSPropertyOp55
 70
     1
102
RTVSPropertyOp56
 70
     1
102
RTVSPropertyOp57
 70
     1
102
RTVSPropertyOp58
 70
     1
102
RTVSPropertyOp59
 70
     1
102
RTVSPropertyOp60
 70
     1
102
RTVSPropertyOp61
 70
     1
102
RTVSPropertyOp62
 70
     1
  0
XRECORD
  5
857
102
{ACAD_REACTORS
330
856
102
}
330
856
100
AcDbXrecord
280
     1
102
RTVSPost2010Prop28
280
     0
102
RTVSPost2010PropOp28
 70
     1
102
RTVSPost2010Prop29
280
     1
102
RTVSPost2010PropOp29
 70
     1
102
RTVSPost2010Prop30
280
     1
102
RTVSPost2010PropOp30
 70
     1
102
RTVSPost2010Prop31
280
     0
102
RTVSPost2010PropOp31
 70
     1
102
RTVSPost2010Prop32
280
     0
102
RTVSPost2010PropOp32
 70
     1
102
RTVSPost2010Prop33
280
     0
102
RTVSPost2010PropOp33
 70
     1
102
RTVSPost2010Prop34
280
     0
102
RTVSPost2010PropOp34
 70
     1
102
RTVSPost2010Prop35
280
     0
102
RTVSPost2010PropOp35
 70
     1
102
RTVSPost2010Prop36
280
     0
102
RTVSPost2010PropOp36
 70
     1
102
RTVSPost2010Prop37
 90
       50
102
RTVSPost2010PropOp37
 70
     1
102
RTVSPost2010Prop38
140
0.0
102
RTVSPost2010PropOp38
 70
     1
102
RTVSPost2010Prop39
140
1.0
102
RTVSPost2010PropOp39
 70
     1
102
RTVSPost2010Prop40
 90
        0
102
RTVSPost2010PropOp40
 70
     1
102
RTVSPost2010Prop41ColorIndex
 90
       18
102
RTVSPost2010Prop41ColorRGB
 90
        0
102
RTVSPost2010PropOp41
 70
     1
102
RTVSPost2010Prop42
 90
       50
102
RTVSPost2010PropOp42
 70
     1
102
RTVSPost2010Prop43
 90
        3
102
RTVSPost2010PropOp43
 70
     1
102
RTVSPost2010Prop44ColorIndex
 90
        5
102
RTVSPost2010Prop44ColorRGB
 90
      255
102
RTVSPost2010PropOp44
 70
     1
102
RTVSPost2010Prop45
280
     0
102
RTVSPost2010PropOp45
 70
     1
102
RTVSPost2010Prop46
 90
       50
102
RTVSPost2010PropOp46
 70
     1
102
RTVSPost2010Prop47
 90
       50
102
RTVSPost2010PropOp47
 70
     1
102
RTVSPost2010Prop48
 90
       50
102
RTVSPost2010PropOp48
 70
     1
102
RTVSPost2010Prop49
280
     0
102
RTVSPost2010PropOp49
 70
     1
102
RTVSPost2010Prop50
 90
       50
102
RTVSPost2010PropOp50
 70
     1
102
RTVSPost2010Prop51ColorIndex
 90
      256
102
RTVSPost2010Prop51ColorRGB
 90
-16777216
102
RTVSPost2010PropOp51
 70
     0
102
RTVSPost2010Prop52
140
1.0
102
RTVSPost2010PropOp52
 70
     0
102
RTVSPost2010Prop53
 90
        2
102
RTVSPost2010PropOp53
 70
     1
102
RTVSPost2010Prop54
  1
strokes_ogs.tif
102
RTVSPost2010PropOp54
 70
     1
102
RTVSPost2010Prop55
280
     0
102
RTVSPost2010PropOp55
 70
     1
102
RTVSPost2010Prop56
140
1.0
102
RTVSPost2010PropOp56
 70
     1
102
RTVSPost2010Prop57
140
1.0
102
RTVSPost2010PropOp57
 70
     1
102
RTVSPropertyOp0
 70
     1
102
RTVSPropertyOp1
 70
     1
102
RTVSPropertyOp2
 70
     1
102
RTVSPropertyOp3
 70
     1
102
RTVSPropertyOp4
 70
     1
102
RTVSPropertyOp5
 70
     1
102
RTVSPropertyOp6
 70
     1
102
RTVSPropertyOp7
 70
     1
102
RTVSPropertyOp8
 70
     1
102
RTVSPropertyOp9
 70
     1
102
RTVSPropertyOp10
 70
     1
102
RTVSPropertyOp11
 70
     1
102
RTVSPropertyOp12
 70
     1
102
RTVSPropertyOp13
 70
     1
102
RTVSPropertyOp14
 70
     1
102
RTVSPropertyOp15
 70
     1
102
RTVSPropertyOp16
 70
     1
102
RTVSPropertyOp17
 70
     1
102
RTVSPropertyOp18
 70
     1
102
RTVSPropertyOp19
 70
     1
102
RTVSPropertyOp20
 70
     1
102
RTVSPropertyOp21
 70
     1
102
RTVSPropertyOp22
 70
     1
102
RTVSPropertyOp23
 70
     1
102
RTVSPropertyOp24
 70
     1
102
RTVSPropertyOp25
 70
     1
102
RTVSPropertyOp26
 70
     1
102
RTVSPropertyOp27
 70
     1
102
RTVSPropertyOp28
 70
     1
102
RTVSPropertyOp29
 70
     1
102
RTVSPropertyOp30
 70
     1
102
RTVSPropertyOp31
 70
     1
102
RTVSPropertyOp32
 70
     1
102
RTVSPropertyOp33
 70
     1
102
RTVSPropertyOp34
 70
     1
102
RTVSPropertyOp35
 70
     1
102
RTVSPropertyOp36
 70
     1
102
RTVSPropertyOp37
 70
     1
102
RTVSPropertyOp38
 70
     1
102
RTVSPropertyOp39
 70
     1
102
RTVSPropertyOp40
 70
     1
102
RTVSPropertyOp41
 70
     1
102
RTVSPropertyOp42
 70
     1
102
RTVSPropertyOp43
 70
     1
102
RTVSPropertyOp44
 70
     1
102
RTVSPropertyOp45
 70
     1
102
RTVSPropertyOp46
 70
     1
102
RTVSPropertyOp47
 70
     1
102
RTVSPropertyOp48
 70
     1
102
RTVSPropertyOp49
 70
     1
102
RTVSPropertyOp50
 70
     1
102
RTVSPropertyOp51
 70
     0
102
RTVSPropertyOp52
 70
     0
102
RTVSPropertyOp53
 70
     1
102
RTVSPropertyOp54
 70
     1
102
RTVSPropertyOp55
 70
     1
102
RTVSPropertyOp56
 70
     1
102
RTVSPropertyOp57
 70
     1
102
RTVSPropertyOp58
 70
     1
102
RTVSPropertyOp59
 70
     1
102
RTVSPropertyOp60
 70
     1
102
RTVSPropertyOp61
 70
     1
102
RTVSPropertyOp62
 70
     1
  0
XRECORD
  5
859
102
{ACAD_REACTORS
330
858
102
}
330
858
100
AcDbXrecord
280
     1
102
RTVSPost2010Prop28
280
     0
102
RTVSPost2010PropOp28
 70
     1
102
RTVSPost2010Prop29
280
     1
102
RTVSPost2010PropOp29
 70
     1
102
RTVSPost2010Prop30
280
     1
102
RTVSPost2010PropOp30
 70
     1
102
RTVSPost2010Prop31
280
     0
102
RTVSPost2010PropOp31
 70
     1
102
RTVSPost2010Prop32
280
     0
102
RTVSPost2010PropOp32
 70
     1
102
RTVSPost2010Prop33
280
     0
102
RTVSPost2010PropOp33
 70
     1
102
RTVSPost2010Prop34
280
     0
102
RTVSPost2010PropOp34
 70
     1
102
RTVSPost2010Prop35
280
     0
102
RTVSPost2010PropOp35
 70
     1
102
RTVSPost2010Prop36
280
     0
102
RTVSPost2010PropOp36
 70
     1
102
RTVSPost2010Prop37
 90
       50
102
RTVSPost2010PropOp37
 70
     1
102
RTVSPost2010Prop38
140
0.0
102
RTVSPost2010PropOp38
 70
     1
102
RTVSPost2010Prop39
140
1.0
102
RTVSPost2010PropOp39
 70
     1
102
RTVSPost2010Prop40
 90
        0
102
RTVSPost2010PropOp40
 70
     1
102
RTVSPost2010Prop41ColorIndex
 90
       18
102
RTVSPost2010Prop41ColorRGB
 90
        0
102
RTVSPost2010PropOp41
 70
     1
102
RTVSPost2010Prop42
 90
       50
102
RTVSPost2010PropOp42
 70
     1
102
RTVSPost2010Prop43
 90
        3
102
RTVSPost2010PropOp43
 70
     1
102
RTVSPost2010Prop44ColorIndex
 90
        5
102
RTVSPost2010Prop44ColorRGB
 90
      255
102
RTVSPost2010PropOp44
 70
     1
102
RTVSPost2010Prop45
280
     0
102
RTVSPost2010PropOp45
 70
     1
102
RTVSPost2010Prop46
 90
       50
102
RTVSPost2010PropOp46
 70
     1
102
RTVSPost2010Prop47
 90
       50
102
RTVSPost2010PropOp47
 70
     1
102
RTVSPost2010Prop48
 90
       50
102
RTVSPost2010PropOp48
 70
     1
102
RTVSPost2010Prop49
280
     0
102
RTVSPost2010PropOp49
 70
     1
102
RTVSPost2010Prop50
 90
       50
102
RTVSPost2010PropOp50
 70
     1
102
RTVSPost2010Prop51ColorIndex
 90
      256
102
RTVSPost2010Prop51ColorRGB
 90
-16777216
102
RTVSPost2010PropOp51
 70
     0
102
RTVSPost2010Prop52
140
1.0
102
RTVSPost2010PropOp52
 70
     0
102
RTVSPost2010Prop53
 90
        2
102
RTVSPost2010PropOp53
 70
     1
102
RTVSPost2010Prop54
  1
strokes_ogs.tif
102
RTVSPost2010PropOp54
 70
     1
102
RTVSPost2010Prop55
280
     0
102
RTVSPost2010PropOp55
 70
     1
102
RTVSPost2010Prop56
140
1.0
102
RTVSPost2010PropOp56
 70
     1
102
RTVSPost2010Prop57
140
1.0
102
RTVSPost2010PropOp57
 70
     1
102
RTVSPropertyOp0
 70
     1
102
RTVSPropertyOp1
 70
     1
102
RTVSPropertyOp2
 70
     1
102
RTVSPropertyOp3
 70
     1
102
RTVSPropertyOp4
 70
     1
102
RTVSPropertyOp5
 70
     1
102
RTVSPropertyOp6
 70
     1
102
RTVSPropertyOp7
 70
     1
102
RTVSPropertyOp8
 70
     1
102
RTVSPropertyOp9
 70
     1
102
RTVSPropertyOp10
 70
     1
102
RTVSPropertyOp11
 70
     1
102
RTVSPropertyOp12
 70
     1
102
RTVSPropertyOp13
 70
     1
102
RTVSPropertyOp14
 70
     1
102
RTVSPropertyOp15
 70
     1
102
RTVSPropertyOp16
 70
     1
102
RTVSPropertyOp17
 70
     1
102
RTVSPropertyOp18
 70
     1
102
RTVSPropertyOp19
 70
     1
102
RTVSPropertyOp20
 70
     1
102
RTVSPropertyOp21
 70
     1
102
RTVSPropertyOp22
 70
     1
102
RTVSPropertyOp23
 70
     1
102
RTVSPropertyOp24
 70
     1
102
RTVSPropertyOp25
 70
     1
102
RTVSPropertyOp26
 70
     1
102
RTVSPropertyOp27
 70
     1
102
RTVSPropertyOp28
 70
     1
102
RTVSPropertyOp29
 70
     1
102
RTVSPropertyOp30
 70
     1
102
RTVSPropertyOp31
 70
     1
102
RTVSPropertyOp32
 70
     1
102
RTVSPropertyOp33
 70
     1
102
RTVSPropertyOp34
 70
     1
102
RTVSPropertyOp35
 70
     1
102
RTVSPropertyOp36
 70
     1
102
RTVSPropertyOp37
 70
     1
102
RTVSPropertyOp38
 70
     1
102
RTVSPropertyOp39
 70
     1
102
RTVSPropertyOp40
 70
     1
102
RTVSPropertyOp41
 70
     1
102
RTVSPropertyOp42
 70
     1
102
RTVSPropertyOp43
 70
     1
102
RTVSPropertyOp44
 70
     1
102
RTVSPropertyOp45
 70
     1
102
RTVSPropertyOp46
 70
     1
102
RTVSPropertyOp47
 70
     1
102
RTVSPropertyOp48
 70
     1
102
RTVSPropertyOp49
 70
     1
102
RTVSPropertyOp50
 70
     1
102
RTVSPropertyOp51
 70
     0
102
RTVSPropertyOp52
 70
     0
102
RTVSPropertyOp53
 70
     1
102
RTVSPropertyOp54
 70
     1
102
RTVSPropertyOp55
 70
     1
102
RTVSPropertyOp56
 70
     1
102
RTVSPropertyOp57
 70
     1
102
RTVSPropertyOp58
 70
     1
102
RTVSPropertyOp59
 70
     1
102
RTVSPropertyOp60
 70
     1
102
RTVSPropertyOp61
 70
     1
102
RTVSPropertyOp62
 70
     1
  0
XRECORD
  5
849
102
{ACAD_REACTORS
330
848
102
}
330
848
100
AcDbXrecord
280
     1
102
RTVSPost2010Prop28
280
     0
102
RTVSPost2010PropOp28
 70
     1
102
RTVSPost2010Prop29
280
     1
102
RTVSPost2010PropOp29
 70
     1
102
RTVSPost2010Prop30
280
     1
102
RTVSPost2010PropOp30
 70
     1
102
RTVSPost2010Prop31
280
     0
102
RTVSPost2010PropOp31
 70
     1
102
RTVSPost2010Prop32
280
     0
102
RTVSPost2010PropOp32
 70
     1
102
RTVSPost2010Prop33
280
     0
102
RTVSPost2010PropOp33
 70
     1
102
RTVSPost2010Prop34
280
     0
102
RTVSPost2010PropOp34
 70
     1
102
RTVSPost2010Prop35
280
     0
102
RTVSPost2010PropOp35
 70
     1
102
RTVSPost2010Prop36
280
     0
102
RTVSPost2010PropOp36
 70
     1
102
RTVSPost2010Prop37
 90
       50
102
RTVSPost2010PropOp37
 70
     1
102
RTVSPost2010Prop38
140
0.0
102
RTVSPost2010PropOp38
 70
     1
102
RTVSPost2010Prop39
140
1.0
102
RTVSPost2010PropOp39
 70
     1
102
RTVSPost2010Prop40
 90
        0
102
RTVSPost2010PropOp40
 70
     1
102
RTVSPost2010Prop41ColorIndex
 90
       18
102
RTVSPost2010Prop41ColorRGB
 90
        0
102
RTVSPost2010PropOp41
 70
     1
102
RTVSPost2010Prop42
 90
       50
102
RTVSPost2010PropOp42
 70
     1
102
RTVSPost2010Prop43
 90
        3
102
RTVSPost2010PropOp43
 70
     1
102
RTVSPost2010Prop44ColorIndex
 90
        5
102
RTVSPost2010Prop44ColorRGB
 90
      255
102
RTVSPost2010PropOp44
 70
     1
102
RTVSPost2010Prop45
280
     0
102
RTVSPost2010PropOp45
 70
     1
102
RTVSPost2010Prop46
 90
       50
102
RTVSPost2010PropOp46
 70
     1
102
RTVSPost2010Prop47
 90
       50
102
RTVSPost2010PropOp47
 70
     1
102
RTVSPost2010Prop48
 90
       50
102
RTVSPost2010PropOp48
 70
     1
102
RTVSPost2010Prop49
280
     0
102
RTVSPost2010PropOp49
 70
     1
102
RTVSPost2010Prop50
 90
       50
102
RTVSPost2010PropOp50
 70
     1
102
RTVSPost2010Prop51ColorIndex
 90
      256
102
RTVSPost2010Prop51ColorRGB
 90
-16777216
102
RTVSPost2010PropOp51
 70
     0
102
RTVSPost2010Prop52
140
1.0
102
RTVSPost2010PropOp52
 70
     0
102
RTVSPost2010Prop53
 90
        2
102
RTVSPost2010PropOp53
 70
     1
102
RTVSPost2010Prop54
  1
strokes_ogs.tif
102
RTVSPost2010PropOp54
 70
     1
102
RTVSPost2010Prop55
280
     0
102
RTVSPost2010PropOp55
 70
     1
102
RTVSPost2010Prop56
140
1.0
102
RTVSPost2010PropOp56
 70
     1
102
RTVSPost2010Prop57
140
1.0
102
RTVSPost2010PropOp57
 70
     1
102
RTVSPropertyOp0
 70
     1
102
RTVSPropertyOp1
 70
     1
102
RTVSPropertyOp2
 70
     1
102
RTVSPropertyOp3
 70
     1
102
RTVSPropertyOp4
 70
     1
102
RTVSPropertyOp5
 70
     1
102
RTVSPropertyOp6
 70
     1
102
RTVSPropertyOp7
 70
     1
102
RTVSPropertyOp8
 70
     1
102
RTVSPropertyOp9
 70
     1
102
RTVSPropertyOp10
 70
     1
102
RTVSPropertyOp11
 70
     1
102
RTVSPropertyOp12
 70
     1
102
RTVSPropertyOp13
 70
     1
102
RTVSPropertyOp14
 70
     1
102
RTVSPropertyOp15
 70
     1
102
RTVSPropertyOp16
 70
     1
102
RTVSPropertyOp17
 70
     1
102
RTVSPropertyOp18
 70
     1
102
RTVSPropertyOp19
 70
     1
102
RTVSPropertyOp20
 70
     1
102
RTVSPropertyOp21
 70
     1
102
RTVSPropertyOp22
 70
     1
102
RTVSPropertyOp23
 70
     1
102
RTVSPropertyOp24
 70
     1
102
RTVSPropertyOp25
 70
     1
102
RTVSPropertyOp26
 70
     1
102
RTVSPropertyOp27
 70
     1
102
RTVSPropertyOp28
 70
     1
102
RTVSPropertyOp29
 70
     1
102
RTVSPropertyOp30
 70
     1
102
RTVSPropertyOp31
 70
     1
102
RTVSPropertyOp32
 70
     1
102
RTVSPropertyOp33
 70
     1
102
RTVSPropertyOp34
 70
     1
102
RTVSPropertyOp35
 70
     1
102
RTVSPropertyOp36
 70
     1
102
RTVSPropertyOp37
 70
     1
102
RTVSPropertyOp38
 70
     1
102
RTVSPropertyOp39
 70
     1
102
RTVSPropertyOp40
 70
     1
102
RTVSPropertyOp41
 70
     1
102
RTVSPropertyOp42
 70
     1
102
RTVSPropertyOp43
 70
     1
102
RTVSPropertyOp44
 70
     1
102
RTVSPropertyOp45
 70
     1
102
RTVSPropertyOp46
 70
     1
102
RTVSPropertyOp47
 70
     1
102
RTVSPropertyOp48
 70
     1
102
RTVSPropertyOp49
 70
     1
102
RTVSPropertyOp50
 70
     1
102
RTVSPropertyOp51
 70
     0
102
RTVSPropertyOp52
 70
     0
102
RTVSPropertyOp53
 70
     1
102
RTVSPropertyOp54
 70
     1
102
RTVSPropertyOp55
 70
     1
102
RTVSPropertyOp56
 70
     1
102
RTVSPropertyOp57
 70
     1
102
RTVSPropertyOp58
 70
     1
102
RTVSPropertyOp59
 70
     1
102
RTVSPropertyOp60
 70
     1
102
RTVSPropertyOp61
 70
     1
102
RTVSPropertyOp62
 70
     1
  0
XRECORD
  5
83D
102
{ACAD_REACTORS
330
83C
102
}
330
83C
100
AcDbXrecord
280
     1
102
RTVSPost2010Prop28
280
     0
102
RTVSPost2010PropOp28
 70
     1
102
RTVSPost2010Prop29
280
     1
102
RTVSPost2010PropOp29
 70
     1
102
RTVSPost2010Prop30
280
     1
102
RTVSPost2010PropOp30
 70
     1
102
RTVSPost2010Prop31
280
     0
102
RTVSPost2010PropOp31
 70
     1
102
RTVSPost2010Prop32
280
     0
102
RTVSPost2010PropOp32
 70
     1
102
RTVSPost2010Prop33
280
     0
102
RTVSPost2010PropOp33
 70
     1
102
RTVSPost2010Prop34
280
     0
102
RTVSPost2010PropOp34
 70
     1
102
RTVSPost2010Prop35
280
     0
102
RTVSPost2010PropOp35
 70
     1
102
RTVSPost2010Prop36
280
     0
102
RTVSPost2010PropOp36
 70
     1
102
RTVSPost2010Prop37
 90
       50
102
RTVSPost2010PropOp37
 70
     1
102
RTVSPost2010Prop38
140
0.0
102
RTVSPost2010PropOp38
 70
     1
102
RTVSPost2010Prop39
140
1.0
102
RTVSPost2010PropOp39
 70
     1
102
RTVSPost2010Prop40
 90
        0
102
RTVSPost2010PropOp40
 70
     1
102
RTVSPost2010Prop41ColorIndex
 90
       18
102
RTVSPost2010Prop41ColorRGB
 90
        0
102
RTVSPost2010PropOp41
 70
     1
102
RTVSPost2010Prop42
 90
       50
102
RTVSPost2010PropOp42
 70
     1
102
RTVSPost2010Prop43
 90
        3
102
RTVSPost2010PropOp43
 70
     1
102
RTVSPost2010Prop44ColorIndex
 90
        5
102
RTVSPost2010Prop44ColorRGB
 90
      255
102
RTVSPost2010PropOp44
 70
     1
102
RTVSPost2010Prop45
280
     0
102
RTVSPost2010PropOp45
 70
     1
102
RTVSPost2010Prop46
 90
       50
102
RTVSPost2010PropOp46
 70
     1
102
RTVSPost2010Prop47
 90
       50
102
RTVSPost2010PropOp47
 70
     1
102
RTVSPost2010Prop48
 90
       50
102
RTVSPost2010PropOp48
 70
     1
102
RTVSPost2010Prop49
280
     0
102
RTVSPost2010PropOp49
 70
     1
102
RTVSPost2010Prop50
 90
       50
102
RTVSPost2010PropOp50
 70
     1
102
RTVSPost2010Prop51ColorIndex
 90
      256
102
RTVSPost2010Prop51ColorRGB
 90
-16777216
102
RTVSPost2010PropOp51
 70
     0
102
RTVSPost2010Prop52
140
1.0
102
RTVSPost2010PropOp52
 70
     0
102
RTVSPost2010Prop53
 90
        2
102
RTVSPost2010PropOp53
 70
     1
102
RTVSPost2010Prop54
  1
strokes_ogs.tif
102
RTVSPost2010PropOp54
 70
     1
102
RTVSPost2010Prop55
280
     0
102
RTVSPost2010PropOp55
 70
     1
102
RTVSPost2010Prop56
140
1.0
102
RTVSPost2010PropOp56
 70
     1
102
RTVSPost2010Prop57
140
1.0
102
RTVSPost2010PropOp57
 70
     1
102
RTVSPropertyOp0
 70
     1
102
RTVSPropertyOp1
 70
     1
102
RTVSPropertyOp2
 70
     1
102
RTVSPropertyOp3
 70
     1
102
RTVSPropertyOp4
 70
     1
102
RTVSPropertyOp5
 70
     1
102
RTVSPropertyOp6
 70
     1
102
RTVSPropertyOp7
 70
     1
102
RTVSPropertyOp8
 70
     1
102
RTVSPropertyOp9
 70
     1
102
RTVSPropertyOp10
 70
     1
102
RTVSPropertyOp11
 70
     1
102
RTVSPropertyOp12
 70
     1
102
RTVSPropertyOp13
 70
     1
102
RTVSPropertyOp14
 70
     1
102
RTVSPropertyOp15
 70
     1
102
RTVSPropertyOp16
 70
     1
102
RTVSPropertyOp17
 70
     1
102
RTVSPropertyOp18
 70
     1
102
RTVSPropertyOp19
 70
     1
102
RTVSPropertyOp20
 70
     1
102
RTVSPropertyOp21
 70
     1
102
RTVSPropertyOp22
 70
     1
102
RTVSPropertyOp23
 70
     1
102
RTVSPropertyOp24
 70
     1
102
RTVSPropertyOp25
 70
     1
102
RTVSPropertyOp26
 70
     1
102
RTVSPropertyOp27
 70
     1
102
RTVSPropertyOp28
 70
     1
102
RTVSPropertyOp29
 70
     1
102
RTVSPropertyOp30
 70
     1
102
RTVSPropertyOp31
 70
     1
102
RTVSPropertyOp32
 70
     1
102
RTVSPropertyOp33
 70
     1
102
RTVSPropertyOp34
 70
     1
102
RTVSPropertyOp35
 70
     1
102
RTVSPropertyOp36
 70
     1
102
RTVSPropertyOp37
 70
     1
102
RTVSPropertyOp38
 70
     1
102
RTVSPropertyOp39
 70
     1
102
RTVSPropertyOp40
 70
     1
102
RTVSPropertyOp41
 70
     1
102
RTVSPropertyOp42
 70
     1
102
RTVSPropertyOp43
 70
     1
102
RTVSPropertyOp44
 70
     1
102
RTVSPropertyOp45
 70
     1
102
RTVSPropertyOp46
 70
     1
102
RTVSPropertyOp47
 70
     1
102
RTVSPropertyOp48
 70
     1
102
RTVSPropertyOp49
 70
     1
102
RTVSPropertyOp50
 70
     1
102
RTVSPropertyOp51
 70
     0
102
RTVSPropertyOp52
 70
     0
102
RTVSPropertyOp53
 70
     1
102
RTVSPropertyOp54
 70
     1
102
RTVSPropertyOp55
 70
     1
102
RTVSPropertyOp56
 70
     1
102
RTVSPropertyOp57
 70
     1
102
RTVSPropertyOp58
 70
     1
102
RTVSPropertyOp59
 70
     1
102
RTVSPropertyOp60
 70
     1
102
RTVSPropertyOp61
 70
     1
102
RTVSPropertyOp62
 70
     1
  0
XRECORD
  5
85B
102
{ACAD_REACTORS
330
85A
102
}
330
85A
100
AcDbXrecord
280
     1
102
RTVSPost2010Prop28
280
     0
102
RTVSPost2010PropOp28
 70
     1
102
RTVSPost2010Prop29
280
     1
102
RTVSPost2010PropOp29
 70
     1
102
RTVSPost2010Prop30
280
     1
102
RTVSPost2010PropOp30
 70
     1
102
RTVSPost2010Prop31
280
     0
102
RTVSPost2010PropOp31
 70
     1
102
RTVSPost2010Prop32
280
     0
102
RTVSPost2010PropOp32
 70
     1
102
RTVSPost2010Prop33
280
     0
102
RTVSPost2010PropOp33
 70
     1
102
RTVSPost2010Prop34
280
     0
102
RTVSPost2010PropOp34
 70
     1
102
RTVSPost2010Prop35
280
     0
102
RTVSPost2010PropOp35
 70
     1
102
RTVSPost2010Prop36
280
     0
102
RTVSPost2010PropOp36
 70
     1
102
RTVSPost2010Prop37
 90
       50
102
RTVSPost2010PropOp37
 70
     1
102
RTVSPost2010Prop38
140
0.0
102
RTVSPost2010PropOp38
 70
     1
102
RTVSPost2010Prop39
140
1.0
102
RTVSPost2010PropOp39
 70
     1
102
RTVSPost2010Prop40
 90
        0
102
RTVSPost2010PropOp40
 70
     1
102
RTVSPost2010Prop41ColorIndex
 90
       18
102
RTVSPost2010Prop41ColorRGB
 90
        0
102
RTVSPost2010PropOp41
 70
     1
102
RTVSPost2010Prop42
 90
       50
102
RTVSPost2010PropOp42
 70
     1
102
RTVSPost2010Prop43
 90
        3
102
RTVSPost2010PropOp43
 70
     1
102
RTVSPost2010Prop44ColorIndex
 90
        5
102
RTVSPost2010Prop44ColorRGB
 90
      255
102
RTVSPost2010PropOp44
 70
     1
102
RTVSPost2010Prop45
280
     0
102
RTVSPost2010PropOp45
 70
     1
102
RTVSPost2010Prop46
 90
       50
102
RTVSPost2010PropOp46
 70
     1
102
RTVSPost2010Prop47
 90
       50
102
RTVSPost2010PropOp47
 70
     1
102
RTVSPost2010Prop48
 90
       50
102
RTVSPost2010PropOp48
 70
     1
102
RTVSPost2010Prop49
280
     0
102
RTVSPost2010PropOp49
 70
     1
102
RTVSPost2010Prop50
 90
       50
102
RTVSPost2010PropOp50
 70
     1
102
RTVSPost2010Prop51ColorIndex
 90
      256
102
RTVSPost2010Prop51ColorRGB
 90
-16777216
102
RTVSPost2010PropOp51
 70
     0
102
RTVSPost2010Prop52
140
1.0
102
RTVSPost2010PropOp52
 70
     0
102
RTVSPost2010Prop53
 90
        2
102
RTVSPost2010PropOp53
 70
     1
102
RTVSPost2010Prop54
  1
strokes_ogs.tif
102
RTVSPost2010PropOp54
 70
     1
102
RTVSPost2010Prop55
280
     0
102
RTVSPost2010PropOp55
 70
     1
102
RTVSPost2010Prop56
140
1.0
102
RTVSPost2010PropOp56
 70
     1
102
RTVSPost2010Prop57
140
1.0
102
RTVSPost2010PropOp57
 70
     1
102
RTVSPropertyOp0
 70
     1
102
RTVSPropertyOp1
 70
     1
102
RTVSPropertyOp2
 70
     1
102
RTVSPropertyOp3
 70
     1
102
RTVSPropertyOp4
 70
     1
102
RTVSPropertyOp5
 70
     1
102
RTVSPropertyOp6
 70
     1
102
RTVSPropertyOp7
 70
     1
102
RTVSPropertyOp8
 70
     1
102
RTVSPropertyOp9
 70
     1
102
RTVSPropertyOp10
 70
     1
102
RTVSPropertyOp11
 70
     1
102
RTVSPropertyOp12
 70
     1
102
RTVSPropertyOp13
 70
     1
102
RTVSPropertyOp14
 70
     1
102
RTVSPropertyOp15
 70
     1
102
RTVSPropertyOp16
 70
     1
102
RTVSPropertyOp17
 70
     1
102
RTVSPropertyOp18
 70
     1
102
RTVSPropertyOp19
 70
     1
102
RTVSPropertyOp20
 70
     1
102
RTVSPropertyOp21
 70
     1
102
RTVSPropertyOp22
 70
     1
102
RTVSPropertyOp23
 70
     1
102
RTVSPropertyOp24
 70
     1
102
RTVSPropertyOp25
 70
     1
102
RTVSPropertyOp26
 70
     1
102
RTVSPropertyOp27
 70
     1
102
RTVSPropertyOp28
 70
     1
102
RTVSPropertyOp29
 70
     1
102
RTVSPropertyOp30
 70
     1
102
RTVSPropertyOp31
 70
     1
102
RTVSPropertyOp32
 70
     1
102
RTVSPropertyOp33
 70
     1
102
RTVSPropertyOp34
 70
     1
102
RTVSPropertyOp35
 70
     1
102
RTVSPropertyOp36
 70
     1
102
RTVSPropertyOp37
 70
     1
102
RTVSPropertyOp38
 70
     1
102
RTVSPropertyOp39
 70
     1
102
RTVSPropertyOp40
 70
     1
102
RTVSPropertyOp41
 70
     1
102
RTVSPropertyOp42
 70
     1
102
RTVSPropertyOp43
 70
     1
102
RTVSPropertyOp44
 70
     1
102
RTVSPropertyOp45
 70
     1
102
RTVSPropertyOp46
 70
     1
102
RTVSPropertyOp47
 70
     1
102
RTVSPropertyOp48
 70
     1
102
RTVSPropertyOp49
 70
     1
102
RTVSPropertyOp50
 70
     1
102
RTVSPropertyOp51
 70
     0
102
RTVSPropertyOp52
 70
     0
102
RTVSPropertyOp53
 70
     1
102
RTVSPropertyOp54
 70
     1
102
RTVSPropertyOp55
 70
     1
102
RTVSPropertyOp56
 70
     1
102
RTVSPropertyOp57
 70
     1
102
RTVSPropertyOp58
 70
     1
102
RTVSPropertyOp59
 70
     1
102
RTVSPropertyOp60
 70
     1
102
RTVSPropertyOp61
 70
     1
102
RTVSPropertyOp62
 70
     1
  0
ENDSEC
  0
EOF
